1. Die erweiterte Suche funktioniert wieder. Die LiveSearch ist vorübergehend deaktiviert

Wir verwenden Cookies, um deinen Aufenthalt auf Animes.so möglichst angenehm gestalten zu können. Mehr erfahren

Hunter x Hunter (2011) [Laufend][Ger-Dub][720p][WebRip] - Fuuko

Dieses Thema im Forum "Serien (GerDub)" wurde erstellt von Fuuko, 4. Sep. 2019.

  1. Fuuko

    Fuuko Erfahrener Otaku Otaku König

    Registriert seit:
    19. Sep. 2018
    Beiträge:
    198
    Zustimmungen:
    7.527
    Hunter x Hunter (2011)
    E59 - E130

    [​IMG]

    [​IMG]
    [​IMG]
    Episoden: ab Episode 59
    Spieldauer: 23 Min.
    Source: WebRip
    Format: MKV
    Video-Codec: x264
    Audio-Codec: AAC
    Sprache: Deutsch
    Publisher: pro7maxx
    Auflösung: 1280x720
    Größe: ~750 MB
    Code:
    Complete name               : Hunter.x.Hunter.E59.Hast.x.und.x.Gebot.GerDub.720p.WebRip.x264-Fuuko.mkv
    Format                      : Matroska
    Format version              : Version 4
    File size                   : 745 MiB
    Duration                    : 23 min 3 s
    Overall bit rate            : 4 516 kb/s
    Encoded date                : UTC 2019-09-03 00:41:06
    Writing application         : mkvmerge v10.0.0 ('To Drown In You') 64bit
    Writing library             : libebml v1.3.4 + libmatroska v1.4.5
    
    Video
    ID                          : 1
    Format                      : AVC
    Format/Info                 : Advanced Video Codec
    Format profile              : Main@L3.1
    Format settings             : CABAC / 4 Ref Frames
    Format settings, CABAC      : Yes
    Format settings, ReFrames   : 4 frames
    Codec ID                    : V_MPEG4/ISO/AVC
    Duration                    : 23 min 3 s
    Bit rate                    : 4 385 kb/s
    Width                       : 1 280 pixels
    Height                      : 720 pixels
    Display aspect ratio        : 16:9
    Frame rate mode             : Constant
    Frame rate                  : 25.000 FPS
    Color space                 : YUV
    Chroma subsampling          : 4:2:0
    Bit depth                   : 8 bits
    Scan type                   : Progressive
    Bits/(Pixel*Frame)          : 0.190
    Stream size                 : 723 MiB (97%)
    Writing library             : x264 core 157 r2935M 545de2f
    Default                     : Yes
    Forced                      : No
    Color range                 : Limited
    Color primaries             : BT.709
    Transfer characteristics    : BT.709
    Matrix coefficients         : BT.709
    
    Audio
    ID                          : 2
    Format                      : AAC LC
    Format/Info                 : Advanced Audio Codec Low Complexity
    Codec ID                    : A_AAC-2
    Duration                    : 23 min 3 s
    Bit rate                    : 128 kb/s
    Channel(s)                  : 2 channels
    Channel layout              : L R
    Sampling rate               : 48.0 kHz
    Frame rate                  : 46.875 FPS (1024 SPF)
    Compression mode            : Lossy
    Stream size                 : 21.1 MiB (3%)
    Language                    : German
    Default                     : Yes
    Forced                      : No
    [​IMG] [​IMG]
    720p [​IMG]
    Geschützter Bereich
    Registriere dich oder logge dich ein, um den Inhalt sehen zu können
     
    Zuletzt bearbeitet: 20. Nov. 2019 um 02:39 Uhr
  2. Fuuko

    Fuuko Erfahrener Otaku Otaku König

    Registriert seit:
    19. Sep. 2018
    Beiträge:
    198
    Zustimmungen:
    7.527
    Neue Episoden hinzugefügt
    Folge 126 - Zero x und x Rose
    Folge 127 - Feindseligkeit x und x Entschluss
    Folge 128 - Größtmögliche Freude x und x bedingungslose Liebe
    Folge 129 - Ziel x und x Absicht
    Folge 130 - Verzweiflung x durch x Magie
     
    Daniel und songucku gefällt das.