• Wie Du sicherlich schon gesehen hast, hat sich Animes.so gewaltig verändert. Klicke hier um mehr Informationen darüber zu erhalten.

I’m Quitting Heroing | Yuusha, Yamemasu [Jap-Dub][Ger-Sub][720p|1080p][x265][Web-DL] - Amazon

Azugo

H͓̽u͓̽g͓̽o͓̽ ͓̽&͓̽ ͓̽A͓̽z͓̽u͓̽r͓̽a͓̽
Premium
Otaku Gott
Uploader
Beiträge
3.091
Punkte Reaktionen
21.080
Punkte
113

I’m Quitting Heroing | Yuusha, Yamemasu



16667.webp



oie_bchbujbgr3vm-png.30595

anisearch.com schrieb:
Einst rettete Leo, der mächtigste aller Helden, die Welt vor dem Untergang. Doch in Friedenszeiten begannen seine Mitmenschen, ihm mit Misstrauen zu begegnen. Er war zu stark und fremdartig, also wurde er kurzerhand ins Exil geschickt. Enttäuscht über diesen Verrat versucht er, bei der Armee des Dämonenkönigs anzuheuern. Immerhin blieb von den Streitkräften nicht allzu viel übrig, nachdem Leo sie besiegt hatte. Neben Geld- und Personalmangel gibt es kaum ein Bereich, in dem sie keine Hilfe benötigen. Also beginnt Leo, seine besonderen Kräfte einzusetzen, um die Probleme des Dämonenkönigs zu lösen. Dabei begegnet er auch Echidna, seiner einstigen Feindin, wieder. Und als er sie fragt, warum sie damals überhaupt die Menschenwelt überfallen hat, bekommt er eine unerwartete Antwort, die alles, was er zu wissen glaubte, infrage stellt …
Quelle: https://www.anisearch.de/anime/16667


oie_bchbujbgr3vm1-png.30596


Spieldauer: ~24min
Genre: Actionkomödie
Nebengenres: Abenteuer, Fantasy
Sprache:
Japanisch.png
Japanisch
Untertitel:
Deutsch.png
Deutsch
Größe pro Folge: ~327mb
Episodenanzahl: 12/12
Format: MKV
Auflösung: , 1080p (16:9)
Videocodec: H265 (HEVC)
Audiocodec: AAC
Releasegruppe: Anime Otakus
Hoster:
rapidgator-gif.30742
Rapidgator,
ddownload-gif.30720
ddownload


oie_bchbujbgr3vm2-png.30597

Code:
[color=Turquoise]Format                                   : Matroska
Format version                           : Version 4
File size                                : 384 MiB
Duration                                 : 23 min 43 s
Overall bit rate                         : 2 264 kb/s
Encoded date                             : UTC 2022-06-23 10:19:28
Writing application                      : mkvmerge v68.0.0 ('The Curtain') 64-bit
Writing library                          : libebml v1.4.2 + libmatroska v1.6.4

Video
ID                                       : 1
Format                                   : HEVC
Format/Info                              : High Efficiency Video Coding
Format profile                           : [email protected]@High
Codec ID                                 : V_MPEGH/ISO/HEVC
Duration                                 : 23 min 43 s
Bit rate                                 : 2 133 kb/s
Width                                    : 1 920 pixels
Height                                   : 1 080 pixels
Display aspect ratio                     : 16:9
Frame rate mode                          : Constant
Frame rate                               : 23.976 (24000/1001) FPS
Standard                                 : Component
Color space                              : YUV
Chroma subsampling                       : 4:2:0
Bit depth                                : 8 bits
Bits/(Pixel*Frame)                       : 0.043
Stream size                              : 362 MiB (94%)
Default                                  : Yes
Forced                                   : No
Color range                              : Limited

Audio
ID                                       : 2
Format                                   : AAC LC
Format/Info                              : Advanced Audio Codec Low Complexity
Codec ID                                 : A_AAC-2
Duration                                 : 23 min 43 s
Bit rate                                 : 128 kb/s
Channel(s)                               : 2 channels
Channel layout                           : L R
Sampling rate                            : 48.0 kHz
Frame rate                               : 46.875 FPS (1024 SPF)
Compression mode                         : Lossy
Stream size                              : 21.7 MiB (6%)
Title                                    : 日本語
Language                                 : Japanese
Default                                  : Yes
Forced                                   : No
[/color]



oie_bchbujbgr3vm3-png.30598

cooltext396117611400625-png.30739

480D4C1DE7.png

cooltext3961176114006251-png.30741

7E0E60479E.png

To view the content, you need to Sign In or Register.

 
Oben