Interviews mit Monster-Mädchen | Demi-chan wa Kataritai + Bonus [Ger-Dub][720p|1080p][Web-DL] - AoD/CR

Azugo

H͓̽u͓̽g͓̽o͓̽ ͓̽&͓̽ ͓̽A͓̽z͓̽u͓̽r͓̽a͓̽
Premium
Otaku Gott
Uploader
Beiträge
3.138
Reaktionspunkte
23.045
Punkte
113

Interviews mit Monster-Mädchen | Demi-chan wa Kataritai



11725.webp



oie_bchbujbgr3vm-png.30595

anisearch.com schrieb:
Sukkubus, Dullahan und Vampire ‒ sie alle gelten als „Ajin“ oder „Demi“ und unterscheiden sich durch ihre Charakteristika von normalen Menschen. Seit Jahrtausenden wurden sie von diesen verfolgt, doch hat man in jüngster Zeit damit begonnen, sie als Mitglieder der Gesellschaft zu akzeptieren. Damit einher geht auch steigendes Interesse an ihrem Lebensumständen. Tetsuo Takahashi ist Biologielehrer und war immer schon daran interessiert, das Leben der Demi-Menschen zu erforschen. Sein Vorhaben scheiterte allerdings bisher daran, dass diese selten und ihm bisher noch nicht untergekommen sind. Das ändert sich jedoch schlagartig, als mit dem neuen Schuljahr nicht nur ein Demi, sondern ihrer gleich vier an seine Schule kommen. Für Takahashi bietet sich nun endlich die Gelegenheit durch Umgang mit ihnen mehr über sie zu erfahren.
Quelle: https://www.anisearch.de/anime/11725


oie_bchbujbgr3vm1-png.30596


Spieldauer: ~24min
Genre: Komödie
Nebengenres: Alltagsleben, Fantasy, Romanze
Sprache: Deutsch
Untertitle: -
Größe pro Folge: ~251mb, ~871mb
Episodenanzahl: 12/12 + 01/01
Format: MKV
Auflösung: 720p (16:9), 1080p (16:9)
Videocodec: H264 (AVC)
Audiocodec: AAC
Releasegruppe: Hugo
Hoster:
rapidgator-gif.30742
Rapidgator,
ddownload-gif.30720
ddownload


oie_bchbujbgr3vm2-png.30597

Code:
[color=Turquoise]Format                                   : Matroska
Format version                           : Version 4
File size                                : 251 MiB
Duration                                 : 23 min 41 s
Overall bit rate                         : 1 484 kb/s
Encoded date                             : UTC 2021-09-28 20:46:06
Writing application                      : mkvmerge v61.0.0 ('So') 64-bit
Writing library                          : libebml v1.4.2 + libmatroska v1.6.4

Video
ID                                       : 1
Format                                   : AVC
Format/Info                              : Advanced Video Codec
Format profile                           : [email protected]
Format settings                          : CABAC / 9 Ref Frames
Format settings, CABAC                   : Yes
Format settings, Reference frames        : 9 frames
Codec ID                                 : V_MPEG4/ISO/AVC
Duration                                 : 23 min 41 s
Bit rate                                 : 1 226 kb/s
Width                                    : 1 280 pixels
Height                                   : 720 pixels
Display aspect ratio                     : 16:9
Frame rate mode                          : Constant
Frame rate                               : 23.976 (24000/1001) FPS
Color space                              : YUV
Chroma subsampling                       : 4:2:0
Bit depth                                : 8 bits
Scan type                                : Progressive
Bits/(Pixel*Frame)                       : 0.055
Stream size                              : 208 MiB (83%)
Writing library                          : x264 core 161 r3053 c347e7a
Encoding settings                        : cabac=1 / ref=9 / deblock=1:0:-1 / analyse=0x3:0x133 / me=umh / subme=10 / psy=1 / psy_rd=0.60:0.10 / mixed_ref=1 / me_range=24 / chroma_me=1 / trellis=2 / 8x8dct=1 / cqm=0 / deadzone=21,11 / fast_pskip=1 / chroma_qp_offset=-3 / threads=12 / lookahead_threads=3 / sliced_threads=0 / nr=0 / decimate=0 / interlaced=0 / bluray_compat=0 / constrained_intra=0 / bframes=16 / b_pyramid=2 / b_adapt=2 / b_bias=0 / direct=3 / weightb=1 / open_gop=0 / weightp=2 / keyint=192 / keyint_min=19 / scenecut=0 / intra_refresh=0 / rc_lookahead=80 / rc=crf / mbtree=1 / crf=17.0 / qcomp=0.60 / qpmin=0 / qpmax=69 / qpstep=4 / vbv_maxrate=4096 / vbv_bufsize=10240 / crf_max=0.0 / nal_hrd=none / filler=0 / ip_ratio=1.40 / aq=3:1.10
Default                                  : Yes
Forced                                   : No

Audio
ID                                       : 2
Format                                   : AAC LC
Format/Info                              : Advanced Audio Codec Low Complexity
Codec ID                                 : A_AAC-2
Duration                                 : 23 min 41 s
Bit rate                                 : 256 kb/s
Channel(s)                               : 2 channels
Channel layout                           : L R
Sampling rate                            : 48.0 kHz
Frame rate                               : 46.875 FPS (1024 SPF)
Compression mode                         : Lossy
Delay relative to video                  : -83 ms
Stream size                              : 43.4 MiB (17%)
Default                                  : Yes
Forced                                   : No

[/color]
Code:
[color=Turquoise]ormat                                   : Matroska
Format version                           : Version 4
File size                                : 871 MiB
Duration                                 : 23 min 41 s
Overall bit rate                         : 5 141 kb/s
Encoded date                             : UTC 2021-09-28 20:45:57
Writing application                      : mkvmerge v61.0.0 ('So') 64-bit
Writing library                          : libebml v1.4.2 + libmatroska v1.6.4

Video
ID                                       : 1
Format                                   : AVC
Format/Info                              : Advanced Video Codec
Format profile                           : [email protected]
Format settings                          : CABAC / 12 Ref Frames
Format settings, CABAC                   : Yes
Format settings, Reference frames        : 12 frames
Codec ID                                 : V_MPEG4/ISO/AVC
Duration                                 : 23 min 41 s
Bit rate                                 : 4 883 kb/s
Width                                    : 1 920 pixels
Height                                   : 1 080 pixels
Display aspect ratio                     : 16:9
Frame rate mode                          : Constant
Frame rate                               : 23.976 (24000/1001) FPS
Color space                              : YUV
Chroma subsampling                       : 4:2:0
Bit depth                                : 8 bits
Scan type                                : Progressive
Bits/(Pixel*Frame)                       : 0.098
Stream size                              : 827 MiB (95%)
Writing library                          : x264 core 161 r3053 c347e7a
Encoding settings                        : cabac=1 / ref=12 / deblock=1:0:-1 / analyse=0x3:0x133 / me=umh / subme=10 / psy=1 / psy_rd=0.70:0.15 / mixed_ref=1 / me_range=24 / chroma_me=1 / trellis=2 / 8x8dct=1 / cqm=0 / deadzone=21,11 / fast_pskip=1 / chroma_qp_offset=-3 / threads=24 / lookahead_threads=6 / sliced_threads=0 / nr=0 / decimate=0 / interlaced=0 / bluray_compat=0 / constrained_intra=0 / bframes=16 / b_pyramid=2 / b_adapt=2 / b_bias=0 / direct=3 / weightb=1 / open_gop=0 / weightp=2 / keyint=192 / keyint_min=19 / scenecut=0 / intra_refresh=0 / rc_lookahead=80 / rc=crf / mbtree=1 / crf=15.0 / qcomp=0.60 / qpmin=0 / qpmax=69 / qpstep=4 / vbv_maxrate=20480 / vbv_bufsize=40960 / crf_max=0.0 / nal_hrd=none / filler=0 / ip_ratio=1.40 / aq=3:1.10
Default                                  : Yes
Forced                                   : No

Audio
ID                                       : 2
Format                                   : AAC LC
Format/Info                              : Advanced Audio Codec Low Complexity
Codec ID                                 : A_AAC-2
Duration                                 : 23 min 41 s
Bit rate                                 : 256 kb/s
Channel(s)                               : 2 channels
Channel layout                           : L R
Sampling rate                            : 48.0 kHz
Frame rate                               : 46.875 FPS (1024 SPF)
Compression mode                         : Lossy
Delay relative to video                  : -83 ms
Stream size                              : 43.4 MiB (5%)
Default                                  : Yes
Forced                                   : No



[/color]



oie_bchbujbgr3vm3-png.30598

720p
ECBF34F60A.png

1080p
236F36019E.png

To view the content, you need to Sign In or Register.

 
Zuletzt bearbeitet:

Azugo

H͓̽u͓̽g͓̽o͓̽ ͓̽&͓̽ ͓̽A͓̽z͓̽u͓̽r͓̽a͓̽
Premium
Otaku Gott
Uploader
Beiträge
3.138
Reaktionspunkte
23.045
Punkte
113
(っ◔◡◔)っ ♥ Episode 9-13 online. Viel Spaß ♥
 
Oben