1. Die erweiterte Suche funktioniert wieder. Die LiveSearch wird gegen Ende der Woche wieder funktionieren.

Wir verwenden Cookies, um deinen Aufenthalt auf Animes.so möglichst angenehm gestalten zu können. Mehr erfahren

Irozuku Sekai no Ashita kara | IRODUKU : The World in Colors [Laufend][Jap-Dub][Ger-Eng-Sub][720p|1080p][WebRip] - Amazon

Dieses Thema im Forum "Serien (GerSub)" wurde erstellt von Ta@, 5. Okt. 2018.

  1. Ta@

    Ta@ Erfahrener Otaku Otaku König

    Registriert seit:
    7. Juli 2016
    Beiträge:
    340
    Zustimmungen:
    11.619
    Irozuku Sekai no Ashita kara
    IRODUKU : The World in Colors
    So Many Colors in the Future What a Wonderful World, From the Color-Changing World's Tomorrow, Iroduku Sekai no Ashita kara

    [​IMG]
    [​IMG]
    Die 17-jährige Hitomi Tsukishiro lebt in einer Welt, in der Magie zwar ein kleiner aber doch beständiger Bestandteil des Alltags ist. Hitomi ist die Nachfahrin einer Hexenfamilie und hat bereits in sehr jungen Jahren einen schweren Schicksalsschlag erlitten, indem sie die Fähigkeit verlor, Farben zu sehen. Seitdem zeigt sie nur noch selten Emotionen. Ihre Großmutter und erfahrene Hexe Kohaku macht sich seitdem große Sorgen um Hitomi und beschließt daher eines Tages, sie in der Zeit zurückzuschicken: Und zwar in das Jahr 2018! Dort trifft Hitomi auf die nunmehr ebenfalls 17-jährige Kohaku und ihre Freunde. Für Hitomi beginnt damit ein ganz neuer Lebensabschnitt.

    Folgen: 11/12
    Größe pro Folge: ~235 MB/~470 MB
    Folgendauer: ~24 Min
    Releaser: Ta@
    Art: Lizenzrelease
    Sprache: Japanisch
    Untertitel: Deutsch, Englisch
    Jahr: 2018
    Genres: Drama, Romanze
    Auflösung: 1280x720/1920x1080
    Format: MKV
    Quelle: WebRip
    Videocodec: x264
    Farbtiefe: 8Bit
    Audiocodec: AC3
    Publisher: Amazon
    Hoster: Share-Online

    [​IMG]
    Code:
    General Complete name : [Ta@]IRODUKU_-_The_World_in_Colors_01_[Web,720p,AC3].mkv Format : Matroska Format version : Version 4 File size : 236 MiB Duration : 24 min 7 s Overall bit rate : 1 366 kb/s Encoded date : UTC 2018-10-05 17:31:50 Writing application : mkvmerge v10.0.0 ('To Drown In You') 64bit Writing library : libebml v1.3.4 + libmatroska v1.4.5 Attachments : lt.ttf Video ID : 1 Format : AVC Format/Info : Advanced Video Codec Format profile : High@L3.1 Format settings : CABAC / 5 Ref Frames Format settings, CABAC : Yes Format settings, RefFrames : 5 frames Codec ID : V_MPEG4/ISO/AVC Duration : 24 min 6 s Bit rate : 1 140 kb/s Width : 1 280 pixels Height : 720 pixels Display aspect ratio : 16:9 Frame rate mode : Constant Frame rate : 23.976 (24000/1001) FPS Color space : YUV Chroma subsampling : 4:2:0 Bit depth : 8 bits Scan type : Progressive Bits/(Pixel*Frame) : 0.052 Stream size : 197 MiB (83%) Default : Yes Forced : No Color range : Limited Color primaries : BT.709 Transfer characteristics : BT.709 Matrix coefficients : BT.709 Audio ID : 2 Format : E-AC-3 Format/Info : Enhanced AC-3 Commercial name : Dolby Digital Plus Codec ID : A_EAC3 Duration : 24 min 6 s Bit rate mode : Constant Bit rate : 224 kb/s Channel(s) : 2 channels Channel layout : L R Sampling rate : 48.0 kHz Frame rate : 31.250 FPS (1536 SPF) Compression mode : Lossy Stream size : 38.6 MiB (16%) Service kind : Complete Main Default : Yes Forced : No Text #1 ID : 3 Format : ASS Codec ID : S_TEXT/ASS Codec ID/Info : Advanced Sub Station Alpha Duration : 23 min 55 s Bit rate : 95 b/s Count of elements : 296 Compression mode : Lossless Stream size : 16.7 KiB (0%) Default : Yes Forced : No Text #2 ID : 4 Format : ASS Codec ID : S_TEXT/ASS Codec ID/Info : Advanced Sub Station Alpha Duration : 23 min 55 s Bit rate : 99 b/s Count of elements : 327 Compression mode : Lossless Stream size : 17.4 KiB (0%) Default : No Forced : No ​
    Code:
    General Complete name : [Ta@]IRODUKU_-_The_World_in_Colors_01_[Web,1080p,AC3].mkv Format : Matroska Format version : Version 4 File size : 472 MiB Duration : 24 min 7 s Overall bit rate : 2 735 kb/s Encoded date : UTC 2018-10-05 17:32:51 Writing application : mkvmerge v10.0.0 ('To Drown In You') 64bit Writing library : libebml v1.3.4 + libmatroska v1.4.5 Attachments : lt.ttf Video ID : 1 Format : AVC Format/Info : Advanced Video Codec Format profile : High@L4 Format settings : CABAC / 4 Ref Frames Format settings, CABAC : Yes Format settings, RefFrames : 4 frames Codec ID : V_MPEG4/ISO/AVC Duration : 24 min 6 s Bit rate : 2 509 kb/s Width : 1 920 pixels Height : 1 080 pixels Display aspect ratio : 16:9 Frame rate mode : Constant Frame rate : 23.976 (24000/1001) FPS Color space : YUV Chroma subsampling : 4:2:0 Bit depth : 8 bits Scan type : Progressive Bits/(Pixel*Frame) : 0.050 Stream size : 433 MiB (92%) Default : Yes Forced : No Color range : Limited Color primaries : BT.709 Transfer characteristics : BT.709 Matrix coefficients : BT.709 Audio ID : 2 Format : E-AC-3 Format/Info : Enhanced AC-3 Commercial name : Dolby Digital Plus Codec ID : A_EAC3 Duration : 24 min 6 s Bit rate mode : Constant Bit rate : 224 kb/s Channel(s) : 2 channels Channel layout : L R Sampling rate : 48.0 kHz Frame rate : 31.250 FPS (1536 SPF) Compression mode : Lossy Stream size : 38.6 MiB (8%) Service kind : Complete Main Default : Yes Forced : No Text #1 ID : 3 Format : ASS Codec ID : S_TEXT/ASS Codec ID/Info : Advanced Sub Station Alpha Duration : 23 min 55 s Bit rate : 95 b/s Count of elements : 296 Compression mode : Lossless Stream size : 16.7 KiB (0%) Language : German Default : Yes Forced : No Text #2 ID : 4 Format : ASS Codec ID : S_TEXT/ASS Codec ID/Info : Advanced Sub Station Alpha Duration : 23 min 55 s Bit rate : 99 b/s Count of elements : 327 Compression mode : Lossless Stream size : 17.4 KiB (0%) Language : English Default : No Forced : No ​

    Anmerkung:
    Ich habe das Timing verbessert und die Font gefixt.

    720p:[​IMG]1080p:[​IMG]

    Geschützter Bereich
    Registriere dich oder logge dich ein, um den Inhalt sehen zu können
     
    Zuletzt bearbeitet: 14. Dez. 2018 um 21:36 Uhr
  2. Ta@

    Ta@ Erfahrener Otaku Otaku König

    Registriert seit:
    7. Juli 2016
    Beiträge:
    340
    Zustimmungen:
    11.619
    ~Folge 11 online~
     
    Stabilo und farmerjoe gefällt das.