• Wie Du sicherlich schon gesehen hast, hat sich Animes.so gewaltig verändert. Klicke hier um mehr Informationen darüber zu erhalten.

Isekai Maou to Shoukan Shoujo no Dorei Majutsu Omega | How Not to Summon a Demon Lord Ω [Eingestellt][Jap-Dub][Ger-Eng-Sub][720p|1080p][WebRip] - Crunchyroll

Tanuki

Otaku Amateur
Beiträge
1
Punkte Reaktionen
18.590
Punkte
0
Isekai Maou to Shoukan Shoujo no Dorei Majutsu Omega
How Not to Summon a Demon Lord Ω
How Not to Summon a Demon Lord Omega, How Not to Summon a Demon Lord Season 2

ngRfBSF.jpg

BsZiOQ2.png


Sakamoto Takuma, Shera, Rem und der Rest der Truppe kehren für weitere Kämpfe und Geschichten zurück!

Folgen: 3/10
Größe pro Folge: ~711 MB/~1398 MB
Folgendauer: ~24 Min
Releaser: Tanuki
Art: Lizenzrelease
Sprache: Japanisch
Untertitel: Deutsch, Englisch
Jahr: 2021
Genres: Abenteuer, Action, Ecchi, Fantasy, Harem, Komödie, Romanze
Auflösung: 1280x720/1920x1080
Format: MKV
Quelle: Web-DL
Videocodec: x264
Farbtiefe: 8Bit
Audiocodec: AAC
Publisher: Crunchyroll, Kazé Deutschland
Hoster: Uploaded, ddownload

S85m5g2.png

Code:
[LEFT]
General
Unique ID                                : 318058531352961521064211648812507153910 (0xEF47D84F4D4311AECCD790E44C3F45F6)
Complete name                            : How.Not.to.Summon.a.Demon.Lord.S02E01.GerEngSub.AAC.720p.Web-DL.x264-Tanuki.mkv
Format                                   : Matroska
Format version                           : Version 4
File size                                : 711 MiB
Duration                                 : 24 min 5 s
Overall bit rate                         : 4 127 kb/s
Encoded date                             : UTC 2021-04-08 18:46:44
Writing application                      : mkvmerge v19.0.0 ('Brave Captain') 64-bit
Writing library                          : libebml v1.3.5 + libmatroska v1.4.8
Attachments                              : font.ttf

Video
ID                                       : 1
Format                                   : AVC
Format/Info                              : Advanced Video Codec
Format profile                           : [email protected]
Format settings                          : CABAC / 6 Ref Frames
Format settings, CABAC                   : Yes
Format settings, Reference frames        : 6 frames
Codec ID                                 : V_MPEG4/ISO/AVC
Duration                                 : 24 min 5 s
Bit rate                                 : 4 000 kb/s
Width                                    : 1 280 pixels
Height                                   : 720 pixels
Display aspect ratio                     : 16:9
Frame rate mode                          : Constant
Frame rate                               : 23.976 (24000/1001) FPS
Color space                              : YUV
Chroma subsampling                       : 4:2:0
Bit depth                                : 8 bits
Scan type                                : Progressive
Bits/(Pixel*Frame)                       : 0.181
Stream size                              : 688 MiB (97%)
Writing library                          : x264 core 142
Encoding settings                        : cabac=1 / ref=6 / deblock=1:1:1 / analyse=0x3:0x113 / me=umh / subme=8 / psy=1 / psy_rd=0.40:0.00 / mixed_ref=1 / me_range=16 / chroma_me=1 / trellis=1 / 8x8dct=1 / cqm=0 / deadzone=21,11 / fast_pskip=1 / chroma_qp_offset=-2 / threads=10 / lookahead_threads=1 / sliced_threads=0 / nr=0 / decimate=1 / interlaced=0 / bluray_compat=0 / constrained_intra=0 / bframes=0 / weightp=2 / keyint=96 / keyint_min=48 / scenecut=40 / intra_refresh=0 / rc_lookahead=48 / rc=2pass / mbtree=1 / bitrate=4000 / ratetol=1.0 / qcomp=0.60 / qpmin=0 / qpmax=69 / qpstep=4 / cplxblur=20.0 / qblur=0.5 / vbv_maxrate=6000 / vbv_bufsize=9000 / nal_hrd=none / filler=0 / ip_ratio=1.40 / aq=1:0.60
Default                                  : Yes
Forced                                   : No

Audio
ID                                       : 2
Format                                   : AAC LC
Format/Info                              : Advanced Audio Codec Low Complexity
Codec ID                                 : A_AAC-2
Duration                                 : 24 min 5 s
Bit rate                                 : 128 kb/s
Channel(s)                               : 2 channels
Channel layout                           : L R
Sampling rate                            : 44.1 kHz
Frame rate                               : 43.066 FPS (1024 SPF)
Compression mode                         : Lossy
Stream size                              : 22.1 MiB (3%)
Language                                 : Japanese
Default                                  : Yes
Forced                                   : No

Text #1
ID                                       : 3
Format                                   : ASS
Codec ID                                 : S_TEXT/ASS
Codec ID/Info                            : Advanced Sub Station Alpha
Duration                                 : 24 min 1 s
Bit rate                                 : 141 b/s
Count of elements                        : 345
Compression mode                         : Lossless
Stream size                              : 24.9 KiB (0%)
Language                                 : German
Default                                  : Yes
Forced                                   : No

Text #2
ID                                       : 4
Format                                   : ASS
Codec ID                                 : S_TEXT/ASS
Codec ID/Info                            : Advanced Sub Station Alpha
Duration                                 : 24 min 1 s
Bit rate                                 : 146 b/s
Count of elements                        : 407
Compression mode                         : Lossless
Stream size                              : 25.8 KiB (0%)
Language                                 : English
Default                                  : No
Forced                                   : No


[/LEFT]
Code:
[LEFT]
General
Unique ID                                : 18283022609363039739867755447960935971 (0xDC12E9C40B5C60C51CEAFE34EAB1E23)
Complete name                            : How.Not.to.Summon.a.Demon.Lord.S02E01.GerEngSub.AAC.1080p.Web-DL.x264-Tanuki.mkv
Format                                   : Matroska
Format version                           : Version 4
File size                                : 1.37 GiB
Duration                                 : 24 min 5 s
Overall bit rate                         : 8 119 kb/s
Encoded date                             : UTC 2021-04-08 18:46:41
Writing application                      : mkvmerge v19.0.0 ('Brave Captain') 64-bit
Writing library                          : libebml v1.3.5 + libmatroska v1.4.8
Attachments                              : font.ttf

Video
ID                                       : 1
Format                                   : AVC
Format/Info                              : Advanced Video Codec
Format profile                           : [email protected]
Format settings                          : CABAC / 4 Ref Frames
Format settings, CABAC                   : Yes
Format settings, Reference frames        : 4 frames
Codec ID                                 : V_MPEG4/ISO/AVC
Duration                                 : 24 min 5 s
Bit rate                                 : 8 000 kb/s
Width                                    : 1 920 pixels
Height                                   : 1 080 pixels
Display aspect ratio                     : 16:9
Frame rate mode                          : Constant
Frame rate                               : 23.976 (24000/1001) FPS
Color space                              : YUV
Chroma subsampling                       : 4:2:0
Bit depth                                : 8 bits
Scan type                                : Progressive
Bits/(Pixel*Frame)                       : 0.161
Stream size                              : 1.34 GiB (98%)
Writing library                          : x264 core 142
Encoding settings                        : cabac=1 / ref=4 / deblock=1:1:1 / analyse=0x3:0x113 / me=umh / subme=8 / psy=1 / psy_rd=0.40:0.00 / mixed_ref=1 / me_range=16 / chroma_me=1 / trellis=1 / 8x8dct=1 / cqm=0 / deadzone=21,11 / fast_pskip=1 / chroma_qp_offset=-2 / threads=12 / lookahead_threads=2 / sliced_threads=0 / nr=0 / decimate=1 / interlaced=0 / bluray_compat=0 / constrained_intra=0 / bframes=0 / weightp=2 / keyint=96 / keyint_min=48 / scenecut=40 / intra_refresh=0 / rc_lookahead=48 / rc=2pass / mbtree=1 / bitrate=8000 / ratetol=1.0 / qcomp=0.60 / qpmin=0 / qpmax=69 / qpstep=4 / cplxblur=20.0 / qblur=0.5 / vbv_maxrate=12000 / vbv_bufsize=18000 / nal_hrd=none / filler=0 / ip_ratio=1.40 / aq=1:0.60
Default                                  : Yes
Forced                                   : No

Audio
ID                                       : 2
Format                                   : AAC LC
Format/Info                              : Advanced Audio Codec Low Complexity
Codec ID                                 : A_AAC-2
Duration                                 : 24 min 5 s
Bit rate                                 : 128 kb/s
Channel(s)                               : 2 channels
Channel layout                           : L R
Sampling rate                            : 44.1 kHz
Frame rate                               : 43.066 FPS (1024 SPF)
Compression mode                         : Lossy
Stream size                              : 22.1 MiB (2%)
Language                                 : Japanese
Default                                  : Yes
Forced                                   : No

Text #1
ID                                       : 3
Format                                   : ASS
Codec ID                                 : S_TEXT/ASS
Codec ID/Info                            : Advanced Sub Station Alpha
Duration                                 : 24 min 1 s
Bit rate                                 : 141 b/s
Count of elements                        : 345
Compression mode                         : Lossless
Stream size                              : 24.9 KiB (0%)
Language                                 : German
Default                                  : Yes
Forced                                   : No

Text #2
ID                                       : 4
Format                                   : ASS
Codec ID                                 : S_TEXT/ASS
Codec ID/Info                            : Advanced Sub Station Alpha
Duration                                 : 24 min 1 s
Bit rate                                 : 146 b/s
Count of elements                        : 407
Compression mode                         : Lossless
Stream size                              : 25.8 KiB (0%)
Language                                 : English
Default                                  : No
Forced                                   : No


[/LEFT]

720p:
834AC42649.png
1080p:
6942F6D711.png


To view the content, you need to Sign In or Register.
 
Zuletzt bearbeitet:
Oben