Wir verwenden Cookies, um deinen Aufenthalt auf Animes.so möglichst angenehm gestalten zu können. Mehr erfahren

Joshi Kausei [Jap-Dub][Ger-Eng-Sub][720p|1080p][WebRip] - CR

Dieses Thema im Forum "Download Archiv" wurde erstellt von Ta@, 14. Apr. 2019.

  1. Ta@

    Ta@ Erfahrener Otaku Otaku König

    Registriert seit:
    7. Juli 2016
    Beiträge:
    219
    Zustimmungen:
    18.439
    Joshi Kausei


    [​IMG]
    [​IMG]

    Joshi Kausei, die Anime-Adaption zu Ken Wakais gleichnamigem Manga, lehrt uns, dass Stille nicht langweilig sein muss. Wir folgen dem Alltag des hübschen Pechvogels Momoko, der coolen und gefassten Shibumi und der erfrischend unschuldigen Mayumi. Doch eine Sache unterscheidet ihre Geschichte von anderen Alltagskomödien, denn Dialog sucht man hier vergeblich! In Joshi Kausei wird kein Wort gesprochen – hier gibt es nur Bilder, Soundeffekte und drei Oberschülerinnen, die ihr Leben leben.

    Folgen: 4/12
    Größe pro Folge: ~45 MB/~85 MB
    Folgendauer: ~4 Min
    Releaser: Ta@
    Art: Lizenzrelease
    Sprache: Japanisch
    Untertitel: Deutsch, Englisch
    Jahr: 2019
    Genres: Alltagsleben, Ecchi, Komödie
    Auflösung: 1280x720/1920x1080
    Format: MKV
    Quelle: WebRip
    Videocodec: x264
    Farbtiefe: 8Bit
    Audiocodec: AAC
    Publisher: Crunchyroll
    Hoster: Share-Online

    [​IMG]
    Code:
    General Complete name : [Ta@]Joshi_Kausei_01_[Web,720p,AAC].mkv Format : Matroska Format version : Version 4 File size : 45.3 MiB Duration : 3 min 30 s Overall bit rate : 1 810 kb/s Encoded date : UTC 2019-04-14 02:03:01 Writing application : mkvmerge v26.0.0 ('In The Game') 64-bit Writing library : libebml v1.3.6 + libmatroska v1.4.9 Attachments : font.ttf Video ID : 1 Format : AVC Format/Info : Advanced Video Codec Format profile : High@L4 Format settings : CABAC / 6 Ref Frames Format settings, CABAC : Yes Format settings, RefFrames : 6 frames Codec ID : V_MPEG4/ISO/AVC Duration : 3 min 30 s Bit rate : 1 675 kb/s Width : 1 280 pixels Height : 720 pixels Display aspect ratio : 16:9 Frame rate mode : Constant Frame rate : 23.976 (24000/1001) FPS Color space : YUV Chroma subsampling : 4:2:0 Bit depth : 8 bits Scan type : Progressive Bits/(Pixel*Frame) : 0.076 Stream size : 41.9 MiB (92%) Writing library : x264 core 142 Encoding settings : cabac=1 / ref=6 / deblock=1:1:1 / analyse=0x3:0x113 / me=umh / subme=8 / psy=1 / psy_rd=0.40:0.00 / mixed_ref=1 / me_range=16 / chroma_me=1 / trellis=1 / 8x8dct=1 / cqm=0 / deadzone=21,11 / fast_pskip=1 / chroma_qp_offset=-2 / threads=10 / lookahead_threads=1 / sliced_threads=0 / nr=0 / decimate=1 / interlaced=0 / bluray_compat=0 / constrained_intra=0 / bframes=3 / b_pyramid=2 / b_adapt=2 / b_bias=0 / direct=3 / weightb=1 / open_gop=0 / weightp=2 / keyint=9999999 / keyint_min=5000000 / scenecut=0 / intra_refresh=0 / rc_lookahead=50 / rc=crf / mbtree=1 / crf=15.0 / qcomp=0.60 / qpmin=0 / qpmax=69 / qpstep=4 / vbv_maxrate=4000 / vbv_bufsize=6000 / crf_max=0.0 / nal_hrd=none / filler=0 / ip_ratio=1.40 / aq=1:0.60 Default : Yes Forced : No Audio ID : 2 Format : AAC LC Format/Info : Advanced Audio Codec Low Complexity Codec ID : A_AAC-2 Duration : 3 min 30 s Bit rate : 128 kb/s Channel(s) : 2 channels Channel layout : L R Sampling rate : 44.1 kHz Frame rate : 43.066 FPS (1024 SPF) Compression mode : Lossy Delay relative to video : -83 ms Stream size : 3.21 MiB (7%) Default : Yes Forced : No Text #1 ID : 3 Format : ASS Codec ID : S_TEXT/ASS Codec ID/Info : Advanced Sub Station Alpha Duration : 1 min 16 s Bit rate : 43 b/s Count of elements : 5 Compression mode : Lossless Stream size : 411 Bytes (0%) Language : German Default : Yes Forced : No Text #2 ID : 4 Format : ASS Codec ID : S_TEXT/ASS Codec ID/Info : Advanced Sub Station Alpha Duration : 1 min 16 s Bit rate : 42 b/s Count of elements : 5 Compression mode : Lossless Stream size : 403 Bytes (0%) Language : English Default : No Forced : No ​
    Code:
    General Complete name : [Ta@]Joshi_Kausei_01_[Web,1080p,AAC].mkv Format : Matroska Format version : Version 4 File size : 85.2 MiB Duration : 3 min 30 s Overall bit rate : 3 402 kb/s Encoded date : UTC 2019-04-14 02:03:01 Writing application : mkvmerge v26.0.0 ('In The Game') 64-bit Writing library : libebml v1.3.6 + libmatroska v1.4.9 Attachments : font.ttf Video ID : 1 Format : AVC Format/Info : Advanced Video Codec Format profile : High@L4 Format settings : CABAC / 4 Ref Frames Format settings, CABAC : Yes Format settings, RefFrames : 4 frames Codec ID : V_MPEG4/ISO/AVC Duration : 3 min 30 s Bit rate : 3 267 kb/s Width : 1 920 pixels Height : 1 080 pixels Display aspect ratio : 16:9 Frame rate mode : Constant Frame rate : 23.976 (24000/1001) FPS Color space : YUV Chroma subsampling : 4:2:0 Bit depth : 8 bits Scan type : Progressive Bits/(Pixel*Frame) : 0.066 Stream size : 81.8 MiB (96%) Writing library : x264 core 142 Encoding settings : cabac=1 / ref=4 / deblock=1:1:1 / analyse=0x3:0x113 / me=umh / subme=8 / psy=1 / psy_rd=0.40:0.00 / mixed_ref=1 / me_range=16 / chroma_me=1 / trellis=1 / 8x8dct=1 / cqm=0 / deadzone=21,11 / fast_pskip=1 / chroma_qp_offset=-2 / threads=12 / lookahead_threads=2 / sliced_threads=0 / nr=0 / decimate=1 / interlaced=0 / bluray_compat=0 / constrained_intra=0 / bframes=3 / b_pyramid=2 / b_adapt=2 / b_bias=0 / direct=3 / weightb=1 / open_gop=0 / weightp=2 / keyint=9999999 / keyint_min=5000000 / scenecut=0 / intra_refresh=0 / rc_lookahead=50 / rc=crf / mbtree=1 / crf=15.0 / qcomp=0.60 / qpmin=0 / qpmax=69 / qpstep=4 / vbv_maxrate=8000 / vbv_bufsize=12000 / crf_max=0.0 / nal_hrd=none / filler=0 / ip_ratio=1.40 / aq=1:0.60 Default : Yes Forced : No Audio ID : 2 Format : AAC LC Format/Info : Advanced Audio Codec Low Complexity Codec ID : A_AAC-2 Duration : 3 min 30 s Bit rate : 128 kb/s Channel(s) : 2 channels Channel layout : L R Sampling rate : 44.1 kHz Frame rate : 43.066 FPS (1024 SPF) Compression mode : Lossy Delay relative to video : -83 ms Stream size : 3.21 MiB (4%) Default : Yes Forced : No Text #1 ID : 3 Format : ASS Codec ID : S_TEXT/ASS Codec ID/Info : Advanced Sub Station Alpha Duration : 1 min 16 s Bit rate : 43 b/s Count of elements : 5 Compression mode : Lossless Stream size : 411 Bytes (0%) Language : German Default : Yes Forced : No Text #2 ID : 4 Format : ASS Codec ID : S_TEXT/ASS Codec ID/Info : Advanced Sub Station Alpha Duration : 1 min 16 s Bit rate : 42 b/s Count of elements : 5 Compression mode : Lossless Stream size : 403 Bytes (0%) Language : English Default : No Forced : No ​

    Anmerkung:
    Ich habe das Timing verbessert und die Font gefixt.

    720p:[​IMG]1080p:[​IMG]

    Geschützter Bereich
    Registriere dich oder logge dich ein, um den Inhalt sehen zu können
     
    Zuletzt bearbeitet: 2. Mai 2019
    SatoshiKon, Seregil, chris1989 und 6 anderen gefällt das.
  2. Tomoya

    Tomoya Kleiner Experte Otaku Experte

    Registriert seit:
    16. Juni 2013
    Beiträge:
    60
    Zustimmungen:
    1.403
    Joshi Kausei | 女子かう生

    [​IMG]

    [​IMG]
    Joshi Kausei, die Anime-Adaption zu Ken Wakais gleichnamigem Manga, lehrt uns, dass Stille nicht langweilig sein muss. Wir folgen dem Alltag des hübschen Pechvogels Momoko, der coolen und gefassten Shibumi und der erfrischend unschuldigen Mayumi. Doch eine Sache unterscheidet ihre Geschichte von anderen Alltagskomödien, denn Dialog sucht man hier vergeblich! In Joshi Kausei wird kein Wort gesprochen – hier gibt es nur Bilder, Soundeffekte und drei Oberschülerinnen, die ihr Leben leben.


    Sprache: Japanisch
    Untertitel: Deutsch
    Episoden: 12/12
    Auflösung: 1920x1080p

    Dauer pro Folge: 3 Minuten
    Genres: Alltagsleben, Komödie, Schule
    Jahr: 2019

    Format: MKV
    Quelle: WebRip
    Videocodec: H.264
    Audiocodec: AAC
    Größe pro Folge: ca. 100MB

    Releasegruppe: TSP
    Hoster: Share-Online

    [​IMG]
    General
    Complete name : [TSP]Joshi Kausei 01 GerSub [WebRip,1080p,AAC].mkv
    Format : Matroska
    Format version : Version 4 / Version 2
    File size : 85.1 MiB
    Duration : 3 min 30 s
    Overall bit rate : 3 396 kb/s
    Encoded date : UTC 2019-06-04 20:19:50
    Writing application : mkvmerge v34.0.0 ('Sight and Seen') 64-bit
    Writing library : libebml v1.3.7 + libmatroska v1.5.0

    Video
    ID : 1
    Format : AVC
    Format/Info : Advanced Video Codec
    Format profile : High@L4
    Format settings, CABAC : Yes
    Format settings, RefFrames : 4 frames
    Codec ID : V_MPEG4/ISO/AVC
    Duration : 3 min 30 s
    Bit rate : 3 267 kb/s
    Width : 1 920 pixels
    Height : 1 080 pixels
    Display aspect ratio : 16:9
    Frame rate mode : Constant
    Frame rate : 23.976 (24000/1001) FPS
    Color space : YUV
    Chroma subsampling : 4:2:0
    Bit depth : 8 bits
    Scan type : Progressive
    Bits/(Pixel*Frame) : 0.066
    Stream size : 81.8 MiB (96%)
    Writing library : x264 core 142
    Encoding settings : cabac=1 / ref=4 / deblock=1:1:1 / analyse=0x3:0x113 / me=umh / subme=8 / psy=1 / psy_rd=0.40:0.00 / mixed_ref=1 / me_range=16 / chroma_me=1 / trellis=1 / 8x8dct=1 / cqm=0 / deadzone=21,11 / fast_pskip=1 / chroma_qp_offset=-2 / threads=12 / lookahead_threads=2 / sliced_threads=0 / nr=0 / decimate=1 / interlaced=0 / bluray_compat=0 / constrained_intra=0 / bframes=3 / b_pyramid=2 / b_adapt=2 / b_bias=0 / direct=3 / weightb=1 / open_gop=0 / weightp=2 / keyint=9999999 / keyint_min=5000000 / scenecut=0 / intra_refresh=0 / rc_lookahead=50 / rc=crf / mbtree=1 / crf=15.0 / qcomp=0.60 / qpmin=0 / qpmax=69 / qpstep=4 / vbv_maxrate=8000 / vbv_bufsize=12000 / crf_max=0.0 / nal_hrd=none / filler=0 / ip_ratio=1.40 / aq=1:0.60
    Default : Yes
    Forced : No

    Audio
    ID : 2
    Format : AAC
    Format/Info : Advanced Audio Codec
    Format profile : LC
    Codec ID : A_AAC
    Duration : 3 min 30 s
    Bit rate : 128 kb/s
    Channel(s) : 2 channels
    Channel positions : Front: L R
    Sampling rate : 44.1 kHz
    Frame rate : 43.066 FPS (1024 SPF)
    Compression mode : Lossy
    Delay relative to video : -83 ms
    Stream size : 3.21 MiB (4%)
    Default : Yes
    Forced : No

    Text
    ID : 3
    Format : ASS
    Codec ID : S_TEXT/ASS
    Codec ID/Info : Advanced Sub Station Alpha
    Duration : 1 min 16 s
    Bit rate : 43 b/s
    Count of elements : 5
    Compression mode : Lossless
    Stream size : 411 Bytes (0%)
    Language : German
    Default : Yes
    Forced : No









    Status: 1080p [​IMG]

    Geschützter Bereich
    Registriere dich oder logge dich ein, um den Inhalt sehen zu können
     
    Zuletzt bearbeitet: 6. Juli 2019
    LawrenceKraft, Arekusu, Stabilo und 8 anderen gefällt das.
  3. Tomoya

    Tomoya Kleiner Experte Otaku Experte

    Registriert seit:
    16. Juni 2013
    Beiträge:
    60
    Zustimmungen:
    1.403
    Folge 12 Online
    ~Der Anime ist mit Folge 12 Abgeschlossen~
     

Diese Seite empfehlen