Welcome to our Community
Wanting to join the rest of our members? Feel free to sign up today.
Sign up

Josie, der Tiger und die Fische | Josee to Tora to Sakana-tachi [Ger-Jap-Dub][Ger-Sub][720p][1080p][E-AC-3|DTS-HD][8bits|10bits][x264|x265][BluRay] - AO

Azugo

H͓̽u͓̽g͓̽o͓̽ ͓̽&͓̽ ͓̽A͓̽z͓̽u͓̽r͓̽a͓̽
Otaku Gott
Uploader
25 März 2020
3.278
26.453
118


Josie, der Tiger und die Fische | Josee to Tora to Sakana-tachi



Josie-der-Tiger-und-die-Fische---DVD-Limited-Edition.jpg



oie_bchbujbgr3vm-png.30595
anisearch.com schrieb:
»Josie, der Tiger und die Fische« handelt von der jungen Frau Kumiko Yamamura, der Freiheit im Sinne der eigenständigen Bewegung nicht vergönnt ist, weil sie aufgrund ihrer Querschnittslähmung schon seit langem im Rollstuhl sitzt. Nachdem sie von ihrer Familie zunehmend als lästig empfunden worden war, kam sie zu ihrer Großmutter und hat sich seitdem von der Welt abgekapselt – viel lieber verbringt sie ihre Zeit mit Malerei und Fantasiegeschichten; eine dieser Geschichten hat sie dazu bewogen, sich selbst den Spitznamen »Josie« zu geben.

Als Josee eines Tages fast einen Hang hinabrollt, ist es der junge Tsuneo, der sie vor dem Schlimmsten bewahrt. Tsuneo ist Student der Meeresbiologie und immer auf der Suche nach Nebenjobs. Da Josees Großmutter ziemlich besorgt darüber ist, was aus ihrer Enkelin nur werden soll, engagiert sie kurzerhand Tsuneo, damit dieser Zeit mit Josee verbringt und sie auf das Leben als selbstständige Erwachsene vorbereitet. Doch Josee ist sowohl eigenwillig als auch ziemlich ungehobelt und macht Tsuneo das Leben zu Beginn ziemlich schwer. Der junge Student gibt allerdings nicht klein bei, und so kommen sich die beiden sukzessive näher, bis Josee eines Tages bereit ist, ihre Traumwelt zu verlassen und sich all den Facetten der echten Welt zu stellen …
Quelle: https://www.anisearch.de/anime/14808



oie_bchbujbgr3vm1-png.30596


Spieldauer: ~98min
Genre: Drama
Nebengenres: Altagsleben, Romanze
Jahr: 2020
Sprache:
Deutsch.png
Deutsch,
Japanisch.png
Japanisch
Untertitel:
Deutsch.png
Deutsch
Größe pro Folge: ~2200mb, ~4310mb ~8280mb, ~8100mb
Episodenanzahl: 01/01
Format: MKV
Auflösung: 720p (16:9), 1080p (16:9)
Videocodec: H264 (AVC). H265 (HEVC)
Audiocodec: E-AC-3, DTS-HD
Releasegruppe: Anime Otakus
Hoster:
rapidgator-gif.30742
Rapidgator,
ddownload-gif.30720
ddownload


oie_bchbujbgr3vm2-png.30597

Rich (BBCode):
Format                                   : Matroska
Format version                           : Version 4
File size                                : 2.20 GiB
Duration                                 : 1 h 38 min
Overall bit rate                         : 3 205 kb/s
Encoded date                             : UTC 2022-02-19 11:12:39
Writing application                      : mkvmerge v65.0.0 ('Too Much') 64-bit
Writing library                          : libebml v1.4.2 + libmatroska v1.6.4
Release by                               : Anime Otakus
Version                                  : 1.2

Video
ID                                       : 1
Format                                   : AVC
Format/Info                              : Advanced Video Codec
Format profile                           : [email protected]
Format settings                          : CABAC / 8 Ref Frames
Format settings, CABAC                   : Yes
Format settings, Reference frames        : 8 frames
Codec ID                                 : V_MPEG4/ISO/AVC
Duration                                 : 1 h 38 min
Bit rate                                 : 1 861 kb/s
Width                                    : 1 280 pixels
Height                                   : 720 pixels
Display aspect ratio                     : 16:9
Frame rate mode                          : Constant
Frame rate                               : 23.976 (24000/1001) FPS
Color space                              : YUV
Chroma subsampling                       : 4:2:0
Bit depth                                : 8 bits
Scan type                                : Progressive
Bits/(Pixel*Frame)                       : 0.084
Stream size                              : 1.28 GiB (58%)
Language                                 : English
Default                                  : No
Forced                                   : No
Color range                              : Limited
Color primaries                          : BT.709
Transfer characteristics                 : BT.709
Matrix coefficients                      : BT.709

Audio #1
ID                                       : 4
Format                                   : E-AC-3
Format/Info                              : Enhanced AC-3
Commercial name                          : Dolby Digital Plus
Codec ID                                 : A_EAC3
Duration                                 : 1 h 38 min
Bit rate mode                            : Constant
Bit rate                                 : 640 kb/s
Channel(s)                               : 6 channels
Channel layout                           : L R C LFE Ls Rs
Sampling rate                            : 48.0 kHz
Frame rate                               : 31.250 FPS (1536 SPF)
Bit depth                                : 32 bits
Compression mode                         : Lossy
Delay relative to video                  : -5 ms
Stream size                              : 450 MiB (20%)
Title                                    : Surround 5.1
Language                                 : German
Service kind                             : Complete Main
Default                                  : Yes
Forced                                   : No

Audio #2
ID                                       : 5
Format                                   : E-AC-3
Format/Info                              : Enhanced AC-3
Commercial name                          : Dolby Digital Plus
Codec ID                                 : A_EAC3
Duration                                 : 1 h 38 min
Bit rate mode                            : Constant
Bit rate                                 : 640 kb/s
Channel(s)                               : 6 channels
Channel layout                           : L R C LFE Ls Rs
Sampling rate                            : 48.0 kHz
Frame rate                               : 31.250 FPS (1536 SPF)
Bit depth                                : 32 bits
Compression mode                         : Lossy
Delay relative to video                  : -5 ms
Stream size                              : 450 MiB (20%)
Title                                    : Surround 5.1
Language                                 : Japanese
Service kind                             : Complete Main
Default                                  : No
Forced                                   : No

Text #1
ID                                       : 2
Format                                   : PGS
Muxing mode                              : zlib
Codec ID                                 : S_HDMV/PGS
Codec ID/Info                            : Picture based subtitle format used on BDs/HD-DVDs
Title                                    : German Forced
Language                                 : German
Default                                  : Yes
Forced                                   : No

Text #2
ID                                       : 3
Format                                   : PGS
Muxing mode                              : zlib
Codec ID                                 : S_HDMV/PGS
Codec ID/Info                            : Picture based subtitle format used on BDs/HD-DVDs
Title                                    : German Full
Language                                 : German
Default                                  : No
Forced                                   : No

Menu
00:00:00.000                             : :Chapter 01
00:05:01.134                             : :Chapter 02
00:14:09.807                             : :Chapter 03
00:23:25.153                             : :Chapter 04
00:31:36.603                             : :Chapter 05
00:41:14.346                             : :Chapter 06
00:51:12.277                             : :Chapter 07
01:11:35.749                             : :Chapter 08
01:24:45.705                             : :Chapter 09
01:32:40.888                             : :Chapter 10
01:37:17.706                             : :Chapter 11

Rich (BBCode):
Format                                   : Matroska
Format version                           : Version 4
File size                                : 4.31 GiB
Duration                                 : 1 h 38 min
Overall bit rate                         : 6 265 kb/s
Encoded date                             : UTC 2022-02-20 00:53:52
Writing application                      : mkvmerge v65.0.0 ('Too Much') 64-bit
Writing library                          : libebml v1.4.2 + libmatroska v1.6.4
Release by                               : Anime Otakus
Version                                  : 1.2

Video
ID                                       : 1
Format                                   : AVC
Format/Info                              : Advanced Video Codec
Format profile                           : [email protected]
Format settings                          : CABAC / 12 Ref Frames
Format settings, CABAC                   : Yes
Format settings, Reference frames        : 12 frames
Codec ID                                 : V_MPEG4/ISO/AVC
Duration                                 : 1 h 38 min
Bit rate                                 : 4 941 kb/s
Width                                    : 1 920 pixels
Height                                   : 1 080 pixels
Display aspect ratio                     : 16:9
Frame rate mode                          : Constant
Frame rate                               : 23.976 (24000/1001) FPS
Color space                              : YUV
Chroma subsampling                       : 4:2:0
Bit depth                                : 8 bits
Scan type                                : Progressive
Bits/(Pixel*Frame)                       : 0.099
Stream size                              : 3.40 GiB (79%)
Language                                 : English
Default                                  : No
Forced                                   : No
Color range                              : Limited
Color primaries                          : BT.709
Transfer characteristics                 : BT.709
Matrix coefficients                      : BT.709

Audio #1
ID                                       : 2
Format                                   : E-AC-3
Format/Info                              : Enhanced AC-3
Commercial name                          : Dolby Digital Plus
Codec ID                                 : A_EAC3
Duration                                 : 1 h 38 min
Bit rate mode                            : Constant
Bit rate                                 : 640 kb/s
Channel(s)                               : 6 channels
Channel layout                           : L R C LFE Ls Rs
Sampling rate                            : 48.0 kHz
Frame rate                               : 31.250 FPS (1536 SPF)
Bit depth                                : 32 bits
Compression mode                         : Lossy
Delay relative to video                  : -5 ms
Stream size                              : 450 MiB (10%)
Title                                    : Surround 5.1
Language                                 : German
Service kind                             : Complete Main
Default                                  : Yes
Forced                                   : No

Audio #2
ID                                       : 3
Format                                   : E-AC-3
Format/Info                              : Enhanced AC-3
Commercial name                          : Dolby Digital Plus
Codec ID                                 : A_EAC3
Duration                                 : 1 h 38 min
Bit rate mode                            : Constant
Bit rate                                 : 640 kb/s
Channel(s)                               : 6 channels
Channel layout                           : L R C LFE Ls Rs
Sampling rate                            : 48.0 kHz
Frame rate                               : 31.250 FPS (1536 SPF)
Bit depth                                : 32 bits
Compression mode                         : Lossy
Delay relative to video                  : -5 ms
Stream size                              : 450 MiB (10%)
Title                                    : Surround 5.1
Language                                 : Japanese
Service kind                             : Complete Main
Default                                  : No
Forced                                   : No

Text #1
ID                                       : 4
Format                                   : PGS
Muxing mode                              : zlib
Codec ID                                 : S_HDMV/PGS
Codec ID/Info                            : Picture based subtitle format used on BDs/HD-DVDs
Duration                                 : 1 h 36 min
Bit rate                                 : 5 540 b/s
Count of elements                        : 144
Stream size                              : 3.82 MiB (0%)
Title                                    : German Forced
Language                                 : German
Default                                  : Yes
Forced                                   : No

Text #2
ID                                       : 5
Format                                   : PGS
Muxing mode                              : zlib
Codec ID                                 : S_HDMV/PGS
Codec ID/Info                            : Picture based subtitle format used on BDs/HD-DVDs
Duration                                 : 1 h 36 min
Bit rate                                 : 71.1 kb/s
Count of elements                        : 2266
Stream size                              : 49.2 MiB (1%)
Title                                    : German Full
Language                                 : German
Default                                  : No
Forced                                   : No

Menu
00:00:00.000                             : :Chapter 01
00:05:01.134                             : :Chapter 02
00:14:09.807                             : :Chapter 03
00:23:25.153                             : :Chapter 04
00:31:36.603                             : :Chapter 05
00:41:14.346                             : :Chapter 06
00:51:12.277                             : :Chapter 07
01:11:35.749                             : :Chapter 08
01:24:45.705                             : :Chapter 09
01:32:40.888                             : :Chapter 10
01:37:17.706                             : :Chapter 11

Rich (BBCode):
Format                                   : Matroska
Format version                           : Version 4
File size                                : 8.28 GiB
Duration                                 : 1 h 38 min
Overall bit rate mode                    : Variable
Overall bit rate                         : 12.1 Mb/s
Encoded date                             : UTC 2022-02-19 11:11:27
Writing application                      : mkvmerge v65.0.0 ('Too Much') 64-bit
Writing library                          : libebml v1.4.2 + libmatroska v1.6.4
Release by                               : Anime Otakus
Version                                  : 1.2

Video
ID                                       : 1
Format                                   : AVC
Format/Info                              : Advanced Video Codec
Format profile                           : [email protected]
Format settings                          : CABAC / 12 Ref Frames
Format settings, CABAC                   : Yes
Format settings, Reference frames        : 12 frames
Codec ID                                 : V_MPEG4/ISO/AVC
Duration                                 : 1 h 38 min
Bit rate                                 : 4 941 kb/s
Width                                    : 1 920 pixels
Height                                   : 1 080 pixels
Display aspect ratio                     : 16:9
Frame rate mode                          : Constant
Frame rate                               : 23.976 (24000/1001) FPS
Color space                              : YUV
Chroma subsampling                       : 4:2:0
Bit depth                                : 8 bits
Scan type                                : Progressive
Bits/(Pixel*Frame)                       : 0.099
Stream size                              : 3.40 GiB (41%)
Language                                 : English
Default                                  : No
Forced                                   : No
Color range                              : Limited
Color primaries                          : BT.709
Transfer characteristics                 : BT.709
Matrix coefficients                      : BT.709

Audio #1
ID                                       : 4
Format                                   : DTS XLL
Format/Info                              : Digital Theater Systems
Commercial name                          : DTS-HD Master Audio
Codec ID                                 : A_DTS
Duration                                 : 1 h 38 min
Bit rate mode                            : Variable
Bit rate                                 : 3 651 kb/s
Channel(s)                               : 6 channels
Channel layout                           : C L R Ls Rs LFE
Sampling rate                            : 48.0 kHz
Frame rate                               : 93.750 FPS (512 SPF)
Bit depth                                : 24 bits
Compression mode                         : Lossless
Stream size                              : 2.51 GiB (30%)
Title                                    : Surround 5.1
Language                                 : German
Default                                  : Yes
Forced                                   : No

Audio #2
ID                                       : 5
Format                                   : DTS XLL
Format/Info                              : Digital Theater Systems
Commercial name                          : DTS-HD Master Audio
Codec ID                                 : A_DTS
Duration                                 : 1 h 38 min
Bit rate mode                            : Variable
Bit rate                                 : 3 417 kb/s
Channel(s)                               : 6 channels
Channel layout                           : C L R Ls Rs LFE
Sampling rate                            : 48.0 kHz
Frame rate                               : 93.750 FPS (512 SPF)
Bit depth                                : 24 bits
Compression mode                         : Lossless
Stream size                              : 2.35 GiB (28%)
Title                                    : Surround 5.1
Language                                 : Japanese
Default                                  : No
Forced                                   : No

Text #1
ID                                       : 2
Format                                   : PGS
Muxing mode                              : zlib
Codec ID                                 : S_HDMV/PGS
Codec ID/Info                            : Picture based subtitle format used on BDs/HD-DVDs
Duration                                 : 1 h 36 min
Bit rate                                 : 5 540 b/s
Count of elements                        : 144
Stream size                              : 3.82 MiB (0%)
Title                                    : German Forced
Language                                 : German
Default                                  : Yes
Forced                                   : No

Text #2
ID                                       : 3
Format                                   : PGS
Muxing mode                              : zlib
Codec ID                                 : S_HDMV/PGS
Codec ID/Info                            : Picture based subtitle format used on BDs/HD-DVDs
Duration                                 : 1 h 36 min
Bit rate                                 : 71.1 kb/s
Count of elements                        : 2266
Stream size                              : 49.2 MiB (1%)
Title                                    : German Full
Language                                 : German
Default                                  : No
Forced                                   : No

Menu
00:00:00.000                             : :Chapter 01
00:05:01.134                             : :Chapter 02
00:14:09.807                             : :Chapter 03
00:23:25.153                             : :Chapter 04
00:31:36.603                             : :Chapter 05
00:41:14.346                             : :Chapter 06
00:51:12.277                             : :Chapter 07
01:11:35.749                             : :Chapter 08
01:24:45.705                             : :Chapter 09
01:32:40.888                             : :Chapter 10
01:37:17.706                             : :Chapter 11

Rich (BBCode):
Format                                   : Matroska
Format version                           : Version 4
File size                                : 8.10 GiB
Duration                                 : 1 h 38 min
Overall bit rate mode                    : Variable
Overall bit rate                         : 11.8 Mb/s
Encoded date                             : UTC 2022-02-19 21:14:46
Writing application                      : mkvmerge v65.0.0 ('Too Much') 64-bit
Writing library                          : libebml v1.4.2 + libmatroska v1.6.4
Release by                               : Anime Otakus
Version                                  : 1.2

Video
ID                                       : 1
Format                                   : HEVC
Format/Info                              : High Efficiency Video Coding
Format profile                           : Main [email protected]@Main
Codec ID                                 : V_MPEGH/ISO/HEVC
Duration                                 : 1 h 38 min
Bit rate                                 : 4 673 kb/s
Width                                    : 1 920 pixels
Height                                   : 1 080 pixels
Display aspect ratio                     : 16:9
Frame rate mode                          : Constant
Frame rate                               : 23.976 (24000/1001) FPS
Color space                              : YUV
Chroma subsampling                       : 4:2:0 (Type 0)
Bit depth                                : 10 bits
Bits/(Pixel*Frame)                       : 0.094
Stream size                              : 3.21 GiB (40%)
Language                                 : English
Default                                  : No
Forced                                   : No
Color range                              : Limited
Color primaries                          : BT.709
Transfer characteristics                 : BT.709
Matrix coefficients                      : BT.709

Audio #1
ID                                       : 4
Format                                   : DTS XLL
Format/Info                              : Digital Theater Systems
Commercial name                          : DTS-HD Master Audio
Codec ID                                 : A_DTS
Duration                                 : 1 h 38 min
Bit rate mode                            : Variable
Bit rate                                 : 3 651 kb/s
Channel(s)                               : 6 channels
Channel layout                           : C L R Ls Rs LFE
Sampling rate                            : 48.0 kHz
Frame rate                               : 93.750 FPS (512 SPF)
Bit depth                                : 24 bits
Compression mode                         : Lossless
Stream size                              : 2.51 GiB (31%)
Title                                    : Surround 5.1
Language                                 : German
Default                                  : Yes
Forced                                   : No

Audio #2
ID                                       : 5
Format                                   : DTS XLL
Format/Info                              : Digital Theater Systems
Commercial name                          : DTS-HD Master Audio
Codec ID                                 : A_DTS
Duration                                 : 1 h 38 min
Bit rate mode                            : Variable
Bit rate                                 : 3 417 kb/s
Channel(s)                               : 6 channels
Channel layout                           : C L R Ls Rs LFE
Sampling rate                            : 48.0 kHz
Frame rate                               : 93.750 FPS (512 SPF)
Bit depth                                : 24 bits
Compression mode                         : Lossless
Stream size                              : 2.35 GiB (29%)
Title                                    : Surround 5.1
Language                                 : Japanese
Default                                  : No
Forced                                   : No

Text #1
ID                                       : 2
Format                                   : PGS
Muxing mode                              : zlib
Codec ID                                 : S_HDMV/PGS
Codec ID/Info                            : Picture based subtitle format used on BDs/HD-DVDs
Duration                                 : 1 h 36 min
Bit rate                                 : 5 540 b/s
Count of elements                        : 144
Stream size                              : 3.82 MiB (0%)
Title                                    : German Forced
Language                                 : German
Default                                  : Yes
Forced                                   : No

Text #2
ID                                       : 3
Format                                   : PGS
Muxing mode                              : zlib
Codec ID                                 : S_HDMV/PGS
Codec ID/Info                            : Picture based subtitle format used on BDs/HD-DVDs
Duration                                 : 1 h 36 min
Bit rate                                 : 71.1 kb/s
Count of elements                        : 2266
Stream size                              : 49.2 MiB (1%)
Title                                    : German Full
Language                                 : German
Default                                  : No
Forced                                   : No

Menu
00:00:00.000                             : :Chapter 01
00:05:01.134                             : :Chapter 02
00:14:09.807                             : :Chapter 03
00:23:25.153                             : :Chapter 04
00:31:36.603                             : :Chapter 05
00:41:14.346                             : :Chapter 06
00:51:12.277                             : :Chapter 07
01:11:35.749                             : :Chapter 08
01:24:45.705                             : :Chapter 09
01:32:40.888                             : :Chapter 10
01:37:17.706                             : :Chapter 11





oie_bchbujbgr3vm3-png.30598

cooltext396117611400625-png.30739

720p EAC3
1DE8AE9191.png

1080p EAC3
C7CE8393CA.png

1080p DTS-HD
C218831BE8.png

x265 1080p DTS-HD
C299CB5184.png


cooltext3961176114006251-png.30741

720p EAC3
33AA5EC7F0.png

1080p EAC3
6D275CD89F.png

1080p DTS-HD
8713E90DD9.png

x265 1080p DTS-HD
8F76B0EE80.png


To view the content, you need to Sign In or Register.

 
Zuletzt bearbeitet: