Wir verwenden Cookies, um deinen Aufenthalt auf Animes.so möglichst angenehm gestalten zu können. Mehr erfahren

Kaguya-sama wa Kokurasetai: Tensai-tachi no Ren'ai Zunousen | Kaguya-Sama: Love is War [Jap-Dub][Ger-Sub][720p|1080p][WebRip] - Wakanim

Dieses Thema im Forum "Download Archiv" wurde erstellt von Ta@, 17. März 2019.

  1. Ta@

    Ta@ Erfahrener Otaku Otaku König

    Registriert seit:
    7. Juli 2016
    Beiträge:
    219
    Zustimmungen:
    18.439
    Kaguya-sama wa Kokurasetai: Tensai-tachi no Ren'ai Zunousen
    Kaguya-Sama: Love is War
    Kaguya Wants to be Confessed To: The Geniuses' War of Love and Brains

    [​IMG]
    [​IMG]

    In Kaguya-sama: Love Is War, der Anime-Adaption zum gleichnamigen Manga von Aka Akasaka, ist der Name Programm! Auf der einen Seite steht die Vizepräsidentin des Schülerrates der renommierten Eliteschule Shuchiin Academy und Titelheldin Kaguya Shinomiya. Sie ist die Erbin der Shinomiya-Gruppe, die mit einem Kapitalvermögen von 200 Billionen Yen und mehr als 1000 Tochtergesellschaften – darunter unter anderem eine eigene Bank – eines von Japans vier reichsten Konglomeraten ist. Passend zu ihrer sozialen Stellung, sind auch ihre akademischen Leistungen an der Spitze der Nahrungskette zu finden. So konnte die überaus talentierte und hübsche Kaguya bereits mehrere Auszeichnungen in den verschiedensten Gebieten – von Musik bis hin zur Kampfkunst – erringen und ist heute eine mehr als stolze junge Dame. Auf der anderen Seite des Schlachtfelds finden wir den Schülerratspräsidenten, Miyuki Shirogane. Im Gegensatz zu Kaguya ist Miyuki kein geborenes Genie, sondern die Personifizierung des Fleißes und der Hingabe. Durch harte Arbeit und ständiges Lernen sichert er sich nicht nur regelmäßig den Platz an der Spitze der Examensergebnisse, sondern konnte so auch die Position des Schülerratspräsidenten erlangen, obwohl er noch relativ frisch an der Shuchiin Academy ist.

    Folgen: 12/12
    Größe pro Folge: ~700 MB/~1800 MB
    Folgendauer: ~24 Min
    Releaser: Ta@
    Art: Lizenzrelease
    Sprache: Japanisch
    Untertitel: Deutsch
    Jahr: 2019
    Genres: Alltagsleben, Drama, Komödie, Psychodrama, Romanze
    Auflösung: 1280x720/1920x1080
    Format: MKV
    Quelle: WebRip
    Videocodec: x264
    Farbtiefe: 8Bit
    Audiocodec: AAC
    Publisher: Wakanim
    Hoster: Share-Online

    [​IMG]
    Code:
    General Complete name : [Ta@]Kaguya-sama_-_Love_Is_War_10_[Web,720p,AAC].mkv Format : Matroska Format version : Version 4 File size : 619 MiB Duration : 23 min 58 s Overall bit rate : 3 609 kb/s Encoded date : UTC 2019-03-17 11:39:18 Writing application : mkvmerge v10.0.0 ('To Drown In You') 64bit Writing library : libebml v1.3.4 + libmatroska v1.4.5 Attachments : font.ttf Video ID : 1 Format : AVC Format/Info : Advanced Video Codec Format profile : High@L4.1 Format settings : CABAC / 9 Ref Frames Format settings, CABAC : Yes Format settings, RefFrames : 9 frames Codec ID : V_MPEG4/ISO/AVC Duration : 23 min 58 s Bit rate : 3 413 kb/s Width : 1 280 pixels Height : 720 pixels Display aspect ratio : 16:9 Frame rate mode : Constant Frame rate : 23.976 (24000/1001) FPS Color space : YUV Chroma subsampling : 4:2:0 Bit depth : 8 bits Scan type : Progressive Bits/(Pixel*Frame) : 0.154 Stream size : 585 MiB (95%) Writing library : x264 core 155 r2901 7d0ff22 Encoding settings : cabac=1 / ref=9 / deblock=1:1:1 / analyse=0x3:0x133 / me=umh / subme=10 / psy=1 / psy_rd=0.40:0.00 / mixed_ref=1 / me_range=24 / chroma_me=1 / trellis=2 / 8x8dct=1 / cqm=0 / deadzone=21,11 / fast_pskip=1 / chroma_qp_offset=-2 / threads=22 / lookahead_threads=5 / sliced_threads=0 / nr=0 / decimate=1 / interlaced=0 / bluray_compat=0 / constrained_intra=0 / bframes=10 / b_pyramid=2 / b_adapt=2 / b_bias=0 / direct=3 / weightb=1 / open_gop=0 / weightp=2 / keyint=250 / keyint_min=23 / scenecut=40 / intra_refresh=0 / rc_lookahead=60 / rc=crf / mbtree=1 / crf=14.0 / qcomp=0.60 / qpmin=0 / qpmax=69 / qpstep=4 / ip_ratio=1.40 / aq=1:0.60 Default : Yes Forced : No Audio ID : 2 Format : AAC LC Format/Info : Advanced Audio Codec Low Complexity Codec ID : A_AAC-2 Duration : 23 min 58 s Bit rate : 192 kb/s Channel(s) : 2 channels Channel layout : L R Sampling rate : 48.0 kHz Frame rate : 46.875 FPS (1024 SPF) Compression mode : Lossy Delay relative to video : -21 ms Stream size : 33.1 MiB (5%) Default : Yes Forced : No ​
    Code:
    General Complete name : [Ta@]Kaguya-sama_-_Love_Is_War_10_[Web,1080p,AAC].mkv Format : Matroska Format version : Version 4 File size : 1.68 GiB Duration : 23 min 58 s Overall bit rate : 10.0 Mb/s Encoded date : UTC 2019-03-17 11:39:54 Writing application : mkvmerge v10.0.0 ('To Drown In You') 64bit Writing library : libebml v1.3.4 + libmatroska v1.4.5 Attachments : font.ttf Video ID : 1 Format : AVC Format/Info : Advanced Video Codec Format profile : High@L4.1 Format settings : CABAC / 4 Ref Frames Format settings, CABAC : Yes Format settings, RefFrames : 4 frames Codec ID : V_MPEG4/ISO/AVC Duration : 23 min 58 s Bit rate : 9 810 kb/s Width : 1 920 pixels Height : 1 080 pixels Display aspect ratio : 16:9 Frame rate mode : Constant Frame rate : 23.976 (24000/1001) FPS Color space : YUV Chroma subsampling : 4:2:0 Bit depth : 8 bits Scan type : Progressive Bits/(Pixel*Frame) : 0.197 Stream size : 1.64 GiB (98%) Writing library : x264 core 155 r2901 7d0ff22 Encoding settings : cabac=1 / ref=4 / deblock=1:1:1 / analyse=0x3:0x133 / me=umh / subme=10 / psy=1 / psy_rd=0.40:0.00 / mixed_ref=1 / me_range=24 / chroma_me=1 / trellis=2 / 8x8dct=1 / cqm=0 / deadzone=21,11 / fast_pskip=1 / chroma_qp_offset=-2 / threads=24 / lookahead_threads=6 / sliced_threads=0 / nr=0 / decimate=1 / interlaced=0 / bluray_compat=0 / constrained_intra=0 / bframes=10 / b_pyramid=2 / b_adapt=2 / b_bias=0 / direct=3 / weightb=1 / open_gop=0 / weightp=2 / keyint=250 / keyint_min=23 / scenecut=40 / intra_refresh=0 / rc_lookahead=60 / rc=crf / mbtree=1 / crf=12.0 / qcomp=0.60 / qpmin=0 / qpmax=69 / qpstep=4 / ip_ratio=1.40 / aq=1:0.60 Default : Yes Forced : No Audio ID : 2 Format : AAC LC Format/Info : Advanced Audio Codec Low Complexity Codec ID : A_AAC-2 Duration : 23 min 58 s Bit rate : 192 kb/s Channel(s) : 2 channels Channel layout : L R Sampling rate : 48.0 kHz Frame rate : 46.875 FPS (1024 SPF) Compression mode : Lossy Delay relative to video : -21 ms Stream size : 33.1 MiB (2%) Default : Yes Forced : No ​

    Anmerkung:
    Die Untertitel sind im Video eingebrannt.

    720p:[​IMG]1080p:[​IMG]

    Geschützter Bereich
    Registriere dich oder logge dich ein, um den Inhalt sehen zu können
     
    Zuletzt bearbeitet: 30. März 2019
    vegito1990, Tekay, Nepadeus und 96 anderen gefällt das.

Diese Seite empfehlen