1. Die erweiterte Suche funktioniert wieder. Die LiveSearch wird gegen Ende der Woche wieder funktionieren.

Wir verwenden Cookies, um deinen Aufenthalt auf Animes.so möglichst angenehm gestalten zu können. Mehr erfahren

Karakuri Circus | Le Cirque de Karakuri [Laufend][Jap-Dub][Ger-Eng-Sub][720p|1080p][WebRip] - Amazon

Dieses Thema im Forum "Serien (GerSub)" wurde erstellt von Ta@, 11. Okt. 2018.

  1. Ta@

    Ta@ Erfahrener Otaku Otaku König

    Registriert seit:
    7. Juli 2016
    Beiträge:
    340
    Zustimmungen:
    11.619
    Karakuri Circus
    Le Cirque de Karakuri

    [​IMG]
    [​IMG]

    Der Fünftklässler Masaru Saiga wünscht sich nichts sehnlicher, als eines Tages ein Puppenspieler zu werden. Als dann plötzlich sein Vater Sadayoshi Saiga, ein erfolgreicher Unternehmer, verstirbt, erbt Masaru ein wahres Vermögen. Doch das macht ihn gleichzeitig zur Zielscheibe von Kriminellen, die um jeden Preis an diesen Reichtum gelangen wollen, auch wenn das bedeutet, Masaru dabei zu töten! Als Masaru beinahe entführt wird, kommen ihm zwei mysteriöse Leute zur Hilfe: Narumi, ein Kung-Fu-Kämpfer mit einer seltsamen Krankheit, genannt Zonapha-Syndrom und Shirogane, eine silberhaarige Frau, die die Puppe Arurukan (Harlequin) kontrolliert. Gemeinsam geraten die drei immer tiefer in die dunklen Machenschaften und den Komplott, der gegen Masaru zur Erlangung seines Vermögens gerichtet ist, hinein.

    Folgen: 10/36
    Größe pro Folge: ~335 MB/~740 MB
    Folgendauer: ~24 Min
    Releaser: Ta@
    Art: Lizenzrelease
    Sprache: Japanisch
    Untertitel: Deutsch, Englisch
    Jahr: 2018
    Genres: Action, Drama
    Auflösung: 1280x720/1920x1080
    Format: MKV
    Quelle: WebRip
    Videocodec: x264
    Farbtiefe: 8Bit
    Audiocodec: AC3
    Publisher: Amazon
    Hoster: Share-Online

    [​IMG]
    Code:
    General Complete name : [Ta@]Karakuri_Circus_01_[Web,720p,AC3].mkv Format : Matroska Format version : Version 4 File size : 334 MiB Duration : 24 min 0 s Overall bit rate : 1 947 kb/s Encoded date : UTC 2018-10-11 15:52:27 Writing application : mkvmerge v10.0.0 ('To Drown In You') 64bit Writing library : libebml v1.3.4 + libmatroska v1.4.5 Attachments : lt.ttf Video ID : 1 Format : AVC Format/Info : Advanced Video Codec Format profile : High@L3.1 Format settings : CABAC / 5 Ref Frames Format settings, CABAC : Yes Format settings, RefFrames : 5 frames Codec ID : V_MPEG4/ISO/AVC Duration : 24 min 0 s Bit rate : 1 721 kb/s Width : 1 280 pixels Height : 720 pixels Display aspect ratio : 16:9 Frame rate mode : Constant Frame rate : 23.976 (24000/1001) FPS Color space : YUV Chroma subsampling : 4:2:0 Bit depth : 8 bits Scan type : Progressive Bits/(Pixel*Frame) : 0.078 Stream size : 295 MiB (88%) Default : Yes Forced : No Color range : Limited Color primaries : BT.709 Transfer characteristics : BT.709 Matrix coefficients : BT.709 Audio ID : 2 Format : E-AC-3 Format/Info : Enhanced AC-3 Commercial name : Dolby Digital Plus Codec ID : A_EAC3 Duration : 24 min 0 s Bit rate mode : Constant Bit rate : 224 kb/s Channel(s) : 2 channels Channel layout : L R Sampling rate : 48.0 kHz Frame rate : 31.250 FPS (1536 SPF) Compression mode : Lossy Stream size : 38.5 MiB (12%) Service kind : Complete Main Default : Yes Forced : No Text #1 ID : 3 Format : ASS Codec ID : S_TEXT/ASS Codec ID/Info : Advanced Sub Station Alpha Duration : 23 min 24 s Bit rate : 86 b/s Count of elements : 272 Compression mode : Lossless Stream size : 14.8 KiB (0%) Language : German Default : Yes Forced : No Text #2 ID : 4 Format : ASS Codec ID : S_TEXT/ASS Codec ID/Info : Advanced Sub Station Alpha Duration : 23 min 23 s Bit rate : 86 b/s Count of elements : 293 Compression mode : Lossless Stream size : 14.9 KiB (0%) Language : English Default : No Forced : No ​
    Code:
    General Complete name : [Ta@]Karakuri_Circus_01_[Web,1080p,AC3].mkv Format : Matroska Format version : Version 4 File size : 742 MiB Duration : 24 min 0 s Overall bit rate : 4 322 kb/s Encoded date : UTC 2018-10-11 15:52:57 Writing application : mkvmerge v10.0.0 ('To Drown In You') 64bit Writing library : libebml v1.3.4 + libmatroska v1.4.5 Attachments : lt.ttf Video ID : 1 Format : AVC Format/Info : Advanced Video Codec Format profile : High@L4 Format settings : CABAC / 4 Ref Frames Format settings, CABAC : Yes Format settings, RefFrames : 4 frames Codec ID : V_MPEG4/ISO/AVC Duration : 24 min 0 s Bit rate : 4 096 kb/s Width : 1 920 pixels Height : 1 080 pixels Display aspect ratio : 16:9 Frame rate mode : Constant Frame rate : 23.976 (24000/1001) FPS Color space : YUV Chroma subsampling : 4:2:0 Bit depth : 8 bits Scan type : Progressive Bits/(Pixel*Frame) : 0.082 Stream size : 703 MiB (95%) Default : Yes Forced : No Color range : Limited Color primaries : BT.709 Transfer characteristics : BT.709 Matrix coefficients : BT.709 Audio ID : 2 Format : E-AC-3 Format/Info : Enhanced AC-3 Commercial name : Dolby Digital Plus Codec ID : A_EAC3 Duration : 24 min 0 s Bit rate mode : Constant Bit rate : 224 kb/s Channel(s) : 2 channels Channel layout : L R Sampling rate : 48.0 kHz Frame rate : 31.250 FPS (1536 SPF) Compression mode : Lossy Stream size : 38.5 MiB (5%) Service kind : Complete Main Default : Yes Forced : No Text #1 ID : 3 Format : ASS Codec ID : S_TEXT/ASS Codec ID/Info : Advanced Sub Station Alpha Duration : 23 min 24 s Bit rate : 86 b/s Count of elements : 272 Compression mode : Lossless Stream size : 14.8 KiB (0%) Language : German Default : Yes Forced : No Text #2 ID : 4 Format : ASS Codec ID : S_TEXT/ASS Codec ID/Info : Advanced Sub Station Alpha Duration : 23 min 23 s Bit rate : 86 b/s Count of elements : 293 Compression mode : Lossless Stream size : 14.9 KiB (0%) Language : English Default : No Forced : No ​

    Anmerkung:
    Ich habe das Timing verbessert und die Font gefixt.

    720p:[​IMG]1080p:[​IMG]

    Geschützter Bereich
    Registriere dich oder logge dich ein, um den Inhalt sehen zu können
     
    Zuletzt bearbeitet: 14. Dez. 2018 um 01:26 Uhr
    Buze, McZeRo, Bloody Shion und 19 anderen gefällt das.
  2. Ta@

    Ta@ Erfahrener Otaku Otaku König

    Registriert seit:
    7. Juli 2016
    Beiträge:
    340
    Zustimmungen:
    11.619
    ~Folge 10 online~
     
    chopper23 gefällt das.