Wir verwenden Cookies, um deinen Aufenthalt auf Animes.so möglichst angenehm gestalten zu können. Mehr erfahren

OVA Katana Maidens - Tomoshibi[Laufend][Jap-Dub][Ger-Eng-Sub][720p|1080p][WebRip] - CR

Dieses Thema im Forum "Anime Filme (Deutsch)" wurde erstellt von supersonik, 27. Okt. 2020.

  1. supersonik
    supersonik

    Zero Hero Otaku Gott Uploader

    Registriert seit:
    7. Jan. 2018
    Beiträge:
    1.095
    Zustimmungen:
    20.442

    Katana Maidens - Tomoshibi
    Toji no Miko: Kizamishi Issen no Tomoshibi
    刀使ノ巫女 刻みし一閃の燈火
    [​IMG]

    Beschreibung:
    Folgt sobald verfügbar
    by anisearch.de

    Folgen: 2/?
    Größe pro Folge: ~700 MB | ~1340 MB
    Releaser: Anime BluRay Junkies
    Art: Lizenzrelease
    Sprache: Japanisch
    Untertitel: Englisch | Deutsch
    Jahr: 2020
    Genres: Action, Fantasy, Schwerter & Co.
    Auflösung: 1280x720 | 1920x1080
    Format: MKV
    Quelle: WebRip
    Videocodec: x264
    Farbtiefe: 8bit
    Audiocodec: AAC
    Publisher: project No.9 | Crunchyroll
    Hoster: DDownload | Uploaded


    Mediainfo:
    +
    Code:
    General Unique ID : 110994645078530475771589362727854115412 (0x5380CA830FB4BCCCD2B21EE9BCA58A54) Complete name : Katana.Maidens.S00E01.Subbed.AAC.720p.WebRip.x264-ABJ.mkv Format : Matroska Format version : Version 4 File size : 698 MiB Duration : 23 min 40 s Overall bit rate : 4 122 kb/s Encoded date : UTC 2020-10-25 20:40:41 Writing application : mkvmerge v49.0.0 ('Sick Of Losing Soulmates') 64-bit Writing library : libebml v1.4.0 + libmatroska v1.6.1 / Lavf58.42.101 Attachments : font.ttf / font2.ttf RIPPED_BY : Anime BluRay Junkies Video ID : 1 Format : AVC Format/Info : Advanced Video Codec Format profile : High@L4 Format settings : CABAC / 6 Ref Frames Format settings, CABAC : Yes Format settings, Reference frames : 6 frames Codec ID : V_MPEG4/ISO/AVC Duration : 23 min 40 s Bit rate : 4 000 kb/s Width : 1 280 pixels Height : 720 pixels Display aspect ratio : 16:9 Frame rate mode : Constant Frame rate : 23.976 (23976/1000) FPS Original frame rate : 23.976 (24000/1001) FPS Color space : YUV Chroma subsampling : 4:2:0 Bit depth : 8 bits Scan type : Progressive Bits/(Pixel*Frame) : 0.181 Stream size : 675 MiB (97%) Writing library : x264 core 142 Encoding settings : cabac=1 / ref=6 / deblock=1:1:1 / analyse=0x3:0x113 / me=umh / subme=8 / psy=1 / psy_rd=0.40:0.00 / mixed_ref=1 / me_range=16 / chroma_me=1 / trellis=1 / 8x8dct=1 / cqm=0 / deadzone=21,11 / fast_pskip=1 / chroma_qp_offset=-2 / threads=10 / lookahead_threads=1 / sliced_threads=0 / nr=0 / decimate=1 / interlaced=0 / bluray_compat=0 / constrained_intra=0 / bframes=0 / weightp=2 / keyint=96 / keyint_min=48 / scenecut=40 / intra_refresh=0 / rc_lookahead=48 / rc=2pass / mbtree=1 / bitrate=4000 / ratetol=1.0 / qcomp=0.60 / qpmin=0 / qpmax=69 / qpstep=4 / cplxblur=20.0 / qblur=0.5 / vbv_maxrate=6000 / vbv_bufsize=9000 / nal_hrd=none / filler=0 / ip_ratio=1.40 / aq=1:0.60 Language : Japanese Default : Yes Forced : Yes Audio ID : 2 Format : AAC LC Format/Info : Advanced Audio Codec Low Complexity Codec ID : A_AAC-2 Duration : 23 min 40 s Bit rate : 129 kb/s Channel(s) : 2 channels Channel layout : L R Sampling rate : 44.1 kHz Frame rate : 43.066 FPS (1024 SPF) Compression mode : Lossy Stream size : 21.8 MiB (3%) Language : Japanese Default : Yes Forced : Yes Text #1 ID : 3 Format : ASS Codec ID : S_TEXT/ASS Codec ID/Info : Advanced Sub Station Alpha Duration : 21 min 57 s Bit rate : 171 b/s Count of elements : 359 Compression mode : Lossless Stream size : 27.5 KiB (0%) Title : Deutsch Language : German Default : Yes Forced : Yes Text #2 ID : 4 Format : ASS Codec ID : S_TEXT/ASS Codec ID/Info : Advanced Sub Station Alpha Duration : 21 min 57 s Bit rate : 159 b/s Count of elements : 359 Compression mode : Lossless Stream size : 25.6 KiB (0%) Title : Englisch Language : English Default : No Forced : No ​
    Code:
    General Unique ID : 69874893324930184619602583072380704238 (0x34916A399BC136FA6636D6A81CB655EE) Complete name : Katana.Maidens.S00E01.Subbed.AAC.1080p.WebRip.x264-ABJ.mkv Format : Matroska Format version : Version 4 File size : 1.34 GiB Duration : 23 min 40 s Overall bit rate : 8 118 kb/s Encoded date : UTC 2020-10-25 20:40:44 Writing application : mkvmerge v49.0.0 ('Sick Of Losing Soulmates') 64-bit Writing library : libebml v1.4.0 + libmatroska v1.6.1 / Lavf58.42.101 Attachments : font.ttf / font2.ttf RIPPED_BY : Anime BluRay Junkies Video ID : 1 Format : AVC Format/Info : Advanced Video Codec Format profile : High@L4 Format settings : CABAC / 4 Ref Frames Format settings, CABAC : Yes Format settings, Reference frames : 4 frames Codec ID : V_MPEG4/ISO/AVC Duration : 23 min 40 s Bit rate : 8 000 kb/s Width : 1 920 pixels Height : 1 080 pixels Display aspect ratio : 16:9 Frame rate mode : Constant Frame rate : 23.976 (23976/1000) FPS Original frame rate : 23.976 (24000/1001) FPS Color space : YUV Chroma subsampling : 4:2:0 Bit depth : 8 bits Scan type : Progressive Bits/(Pixel*Frame) : 0.161 Stream size : 1.32 GiB (98%) Writing library : x264 core 142 Encoding settings : cabac=1 / ref=4 / deblock=1:1:1 / analyse=0x3:0x113 / me=umh / subme=8 / psy=1 / psy_rd=0.40:0.00 / mixed_ref=1 / me_range=16 / chroma_me=1 / trellis=1 / 8x8dct=1 / cqm=0 / deadzone=21,11 / fast_pskip=1 / chroma_qp_offset=-2 / threads=12 / lookahead_threads=2 / sliced_threads=0 / nr=0 / decimate=1 / interlaced=0 / bluray_compat=0 / constrained_intra=0 / bframes=0 / weightp=2 / keyint=96 / keyint_min=48 / scenecut=40 / intra_refresh=0 / rc_lookahead=48 / rc=2pass / mbtree=1 / bitrate=8000 / ratetol=1.0 / qcomp=0.60 / qpmin=0 / qpmax=69 / qpstep=4 / cplxblur=20.0 / qblur=0.5 / vbv_maxrate=12000 / vbv_bufsize=18000 / nal_hrd=none / filler=0 / ip_ratio=1.40 / aq=1:0.60 Language : Japanese Default : Yes Forced : Yes Audio ID : 2 Format : AAC LC Format/Info : Advanced Audio Codec Low Complexity Codec ID : A_AAC-2 Duration : 23 min 40 s Bit rate : 129 kb/s Channel(s) : 2 channels Channel layout : L R Sampling rate : 44.1 kHz Frame rate : 43.066 FPS (1024 SPF) Compression mode : Lossy Stream size : 21.8 MiB (2%) Language : Japanese Default : Yes Forced : Yes Text #1 ID : 3 Format : ASS Codec ID : S_TEXT/ASS Codec ID/Info : Advanced Sub Station Alpha Duration : 21 min 57 s Bit rate : 171 b/s Count of elements : 359 Compression mode : Lossless Stream size : 27.5 KiB (0%) Title : Deutsch Language : German Default : Yes Forced : Yes Text #2 ID : 4 Format : ASS Codec ID : S_TEXT/ASS Codec ID/Info : Advanced Sub Station Alpha Duration : 21 min 57 s Bit rate : 159 b/s Count of elements : 359 Compression mode : Lossless Stream size : 25.6 KiB (0%) Title : Englisch Language : English Default : No Forced : No ​

    720p: [​IMG]
    1080p: [​IMG]
    Geschützter Bereich
    Registriere dich oder logge dich ein, um den Inhalt sehen zu können
     
    Zuletzt bearbeitet: 29. Nov. 2020 um 17:06 Uhr
    Mafuyo, prinzvegeta, vgws und 9 anderen gefällt das.
  2. supersonik
    supersonik

    Zero Hero Otaku Gott Uploader

    Registriert seit:
    7. Jan. 2018
    Beiträge:
    1.095
    Zustimmungen:
    20.442
    Episode 2 online
    viel spaß :)
     

Diese Seite empfehlen