1. Die erweiterte Suche funktioniert wieder. Die LiveSearch wird gegen Ende der Woche wieder funktionieren.

Wir verwenden Cookies, um deinen Aufenthalt auf Animes.so möglichst angenehm gestalten zu können. Mehr erfahren

Kaze ga Tsuyoku Fuite Iru | Run with the Wind [Laufend][Jap-Dub][Ger-Eng-Sub][720p|1080p][WebRip] - CR

Dieses Thema im Forum "Serien (GerSub)" wurde erstellt von Ta@, 2. Okt. 2018.

  1. Ta@

    Ta@ Erfahrener Otaku Otaku König

    Registriert seit:
    7. Juli 2016
    Beiträge:
    340
    Zustimmungen:
    11.619
    Kaze ga Tsuyoku Fuite Iru
    Run with the Wind
    Feel the Wind, KazeTsuyo

    [​IMG]
    [​IMG]

    Kakeru war einst einer der besten Läufer an seiner Schule. Nun findet er sich plötzlich beim Laufen auf der Flucht wieder – weil er Essen gestohlen hat! Ihm zur Hilfe kommt Haiji, Student der Kansei-Universität. Auch Haiji ist ein Läufer und so schafft er es, Kakeru davon zu überzeugen, in einem alten Appartement, genannt Chikuseisou, einzuziehen. Dort plant Haiji gemeinsam mit weiteren Bewohnern die Teilnahme am sogenannten Hakone-Ekiden-Marathon, einem der bekanntesten Universitätswettrennen in ganz Japan! Dieser findet alljährlich im Januar statt und verläuft von Tokio bis nach Hakone und wieder zurück, mit einer Gesamtstrecke von über 200 km. Doch Kakeru bemerkt schnell, dass neben ihm und Haiji die anderen Bewohner absolute Neulinge auf dem Gebiet des Marathon-Sports sind!

    Folgen: 11/23
    Größe pro Folge: ~375 MB/~930 MB
    Folgendauer: ~24 Min
    Releaser: Ta@
    Art: Lizenzrelease
    Sprache: Japanisch
    Untertitel: Deutsch, Englisch
    Jahr: 2018
    Genres: Drama, Sport
    Auflösung: 1280x720/1920x1080
    Format: MKV
    Quelle: WebRip
    Videocodec: x264
    Farbtiefe: 8Bit
    Audiocodec: AAC
    Publisher: Crunchyroll
    Hoster: Share-Online

    [​IMG]
    Code:
    General Complete name : [Ta@]Run_with_the_Wind_01_[Web,720p,AAC].mkv Format : Matroska Format version : Version 4 File size : 374 MiB Duration : 22 min 45 s Overall bit rate : 2 295 kb/s Encoded date : UTC 2018-10-02 18:57:49 Writing application : mkvmerge v26.0.0 ('In The Game') 64-bit Writing library : libebml v1.3.6 + libmatroska v1.4.9 Attachments : lt.ttf Video ID : 1 Format : AVC Format/Info : Advanced Video Codec Format profile : High@L4 Format settings : CABAC / 6 Ref Frames Format settings, CABAC : Yes Format settings, RefFrames : 6 frames Codec ID : V_MPEG4/ISO/AVC Duration : 22 min 45 s Bit rate : 2 164 kb/s Width : 1 280 pixels Height : 720 pixels Display aspect ratio : 16:9 Frame rate mode : Constant Frame rate : 23.976 (24000/1001) FPS Color space : YUV Chroma subsampling : 4:2:0 Bit depth : 8 bits Scan type : Progressive Bits/(Pixel*Frame) : 0.098 Stream size : 352 MiB (94%) Writing library : x264 core 142 Encoding settings : cabac=1 / ref=6 / deblock=1:1:1 / analyse=0x3:0x113 / me=umh / subme=8 / psy=1 / psy_rd=0.40:0.00 / mixed_ref=1 / me_range=16 / chroma_me=1 / trellis=1 / 8x8dct=1 / cqm=0 / deadzone=21,11 / fast_pskip=1 / chroma_qp_offset=-2 / threads=10 / lookahead_threads=1 / sliced_threads=0 / nr=0 / decimate=1 / interlaced=0 / bluray_compat=0 / constrained_intra=0 / bframes=3 / b_pyramid=2 / b_adapt=2 / b_bias=0 / direct=3 / weightb=1 / open_gop=0 / weightp=2 / keyint=48 / keyint_min=25 / scenecut=0 / intra_refresh=0 / rc_lookahead=48 / rc=crf / mbtree=1 / crf=15.0 / qcomp=0.60 / qpmin=0 / qpmax=69 / qpstep=4 / vbv_maxrate=4000 / vbv_bufsize=6000 / crf_max=0.0 / nal_hrd=none / filler=0 / ip_ratio=1.40 / aq=1:0.60 Default : Yes Forced : No Audio ID : 2 Format : AAC LC Format/Info : Advanced Audio Codec Low Complexity Codec ID : A_AAC-2 Duration : 22 min 45 s Bit rate : 128 kb/s Channel(s) : 2 channels Channel layout : L R Sampling rate : 44.1 kHz Frame rate : 43.066 FPS (1024 SPF) Compression mode : Lossy Delay relative to video : -83 ms Stream size : 20.8 MiB (6%) Default : Yes Forced : No Text #1 ID : 3 Format : ASS Codec ID : S_TEXT/ASS Codec ID/Info : Advanced Sub Station Alpha Duration : 22 min 10 s Bit rate : 131 b/s Count of elements : 325 Compression mode : Lossless Stream size : 21.4 KiB (0%) Language : German Default : Yes Forced : No Text #2 ID : 4 Format : ASS Codec ID : S_TEXT/ASS Codec ID/Info : Advanced Sub Station Alpha Duration : 22 min 10 s Bit rate : 126 b/s Count of elements : 344 Compression mode : Lossless Stream size : 20.5 KiB (0%) Language : English Default : No Forced : No ​
    Code:
    General Complete name : [Ta@]Run_with_the_Wind_01_[Web,1080p,AAC].mkv Format : Matroska Format version : Version 4 File size : 928 MiB Duration : 22 min 45 s Overall bit rate : 5 703 kb/s Encoded date : UTC 2018-10-02 18:57:52 Writing application : mkvmerge v26.0.0 ('In The Game') 64-bit Writing library : libebml v1.3.6 + libmatroska v1.4.9 Attachments : lt.ttf Video ID : 1 Format : AVC Format/Info : Advanced Video Codec Format profile : High@L4 Format settings : CABAC / 4 Ref Frames Format settings, CABAC : Yes Format settings, RefFrames : 4 frames Codec ID : V_MPEG4/ISO/AVC Duration : 22 min 45 s Bit rate : 5 573 kb/s Width : 1 920 pixels Height : 1 080 pixels Display aspect ratio : 16:9 Frame rate mode : Constant Frame rate : 23.976 (24000/1001) FPS Color space : YUV Chroma subsampling : 4:2:0 Bit depth : 8 bits Scan type : Progressive Bits/(Pixel*Frame) : 0.112 Stream size : 907 MiB (98%) Writing library : x264 core 142 Encoding settings : cabac=1 / ref=4 / deblock=1:1:1 / analyse=0x3:0x113 / me=umh / subme=8 / psy=1 / psy_rd=0.40:0.00 / mixed_ref=1 / me_range=16 / chroma_me=1 / trellis=1 / 8x8dct=1 / cqm=0 / deadzone=21,11 / fast_pskip=1 / chroma_qp_offset=-2 / threads=12 / lookahead_threads=2 / sliced_threads=0 / nr=0 / decimate=1 / interlaced=0 / bluray_compat=0 / constrained_intra=0 / bframes=3 / b_pyramid=2 / b_adapt=2 / b_bias=0 / direct=3 / weightb=1 / open_gop=0 / weightp=2 / keyint=48 / keyint_min=25 / scenecut=0 / intra_refresh=0 / rc_lookahead=48 / rc=crf / mbtree=1 / crf=15.0 / qcomp=0.60 / qpmin=0 / qpmax=69 / qpstep=4 / vbv_maxrate=8000 / vbv_bufsize=12000 / crf_max=0.0 / nal_hrd=none / filler=0 / ip_ratio=1.40 / aq=1:0.60 Default : Yes Forced : No Audio ID : 2 Format : AAC LC Format/Info : Advanced Audio Codec Low Complexity Codec ID : A_AAC-2 Duration : 22 min 45 s Bit rate : 128 kb/s Channel(s) : 2 channels Channel layout : L R Sampling rate : 44.1 kHz Frame rate : 43.066 FPS (1024 SPF) Compression mode : Lossy Delay relative to video : -83 ms Stream size : 20.8 MiB (2%) Default : Yes Forced : No Text #1 ID : 3 Format : ASS Codec ID : S_TEXT/ASS Codec ID/Info : Advanced Sub Station Alpha Duration : 22 min 10 s Bit rate : 131 b/s Count of elements : 325 Compression mode : Lossless Stream size : 21.4 KiB (0%) Language : German Default : Yes Forced : No Text #2 ID : 4 Format : ASS Codec ID : S_TEXT/ASS Codec ID/Info : Advanced Sub Station Alpha Duration : 22 min 10 s Bit rate : 126 b/s Count of elements : 344 Compression mode : Lossless Stream size : 20.5 KiB (0%) Language : English Default : No Forced : No ​

    Anmerkung:
    Ich habe das Timing verbessert und die Font gefixt.

    720p:[​IMG]1080p:[​IMG]

    Geschützter Bereich
    Registriere dich oder logge dich ein, um den Inhalt sehen zu können
     
    Zuletzt bearbeitet: 12. Dez. 2018
    Hyro, tzuio, coldbears48 und 12 anderen gefällt das.
  2. Ta@

    Ta@ Erfahrener Otaku Otaku König

    Registriert seit:
    7. Juli 2016
    Beiträge:
    340
    Zustimmungen:
    11.619
    ~Folge 11 online~