• Wie Du sicherlich schon gesehen hast, hat sich Animes.so gewaltig verändert. Klicke hier um mehr Informationen darüber zu erhalten.

Kemono Jihen[Jap-Dub][Ger-Sub][720p|1080p][8bit|10bit][x264|x265][WebRip] - Wakanim

supersonik

Otaku König
Beiträge
223
Punkte Reaktionen
26.973
Punkte
98

Kemono Jihen
怪物事変
ChtagfX.jpg


Beschreibung:
Für ein entlegenes Dorf mitten in Japan stehen die Dinge nicht zum Besten, denn in letzter Zeit finden dessen Bewohner nach jeder Neumondnacht viele ihrer Nutztiere verrottet und übel zugerichtet zu. Weil es so nicht weitergehen kann und keiner eine Erklärung für diese Vorfälle hat, wird kurzerhand Kohachi Inugami engagiert – ein Detektiv, der sich auf okkulte Wesen und Vorfälle spezialisiert hat.

Im Dorf angekommen fällt sein Blick auf einen Jungen, der mitten am Tag allein im Feld arbeitet. Neugierig, wie ein Detektiv eben ist, erkundigt sich Kohachi in seiner Herberge und erfährt, dass dieser Junge Kabane heißt, von allen aber nur »Dorotabou« (ein Begriff für einen in Feldern lebenden Youkai) genannt wird und dank seines schlechten Geruchs nicht in die Nähe der Gäste kommen soll.

Weil bald wieder Neumond ist, begleitet Kohachi den Jungen eine Weile und erkennt bald, dass dieser kein normaler Mensch ist, sondern zu einer Sorte biestartiger Mischwesen gehört – laut dem Detektiv soll eines von ihnen für die Tiermorde verantwortlich sein. Kohachi spannt Kabane daher für seine Ermittlungen ein und spekuliert dabei auf mehr als diese vorübergehende Zusammenarbeit.
by anisearch.de

Folgen: 12/12
Größe pro Folge: ~310 MB | ~770 MB | ~410 MB
Releaser: Anime BluRay Junkies
Art: Lizenzrelease
Sprache: Japanisch
Untertitel: Deutsch
Jahr: 2021
Genres: Action, Drama, Fantasy, Mystery, Detektiv, Dämonen, Gegenwart, Kamis, Monster
Auflösung: 1280x720 | 1920x1080
Format: MKV
Quelle: WebRip
Videocodec: x264 | x265
Farbtiefe: 8bit | 10bit
Audiocodec: AAC
Publisher: AJIADO Co. Ltd | Wakanim
Hoster: DDownload | Rapidgator | Uploaded


Mediainfo:
Code:
[LEFT]
General
Unique ID                                : 297270883140988927668306130715953591694 (0xDFA44A1F86F6BA919C07C80C8D8FF58E)
Complete name                            : Kemono.Jihen.S01E01.Subbed.AAC.720p.WebRip.x264.Repack-ABJ.mkv
Format                                   : Matroska
Format version                           : Version 4
File size                                : 308 MiB
Duration                                 : 23 min 39 s
Overall bit rate                         : 1 820 kb/s
Encoded date                             : UTC 2021-03-03 22:36:36
Writing application                      : mkvmerge v53.0.0 ('Fool's Gold') 64-bit
Writing library                          : libebml v1.4.1 + libmatroska v1.6.2 / Lavf58.42.101
Attachments                              : font.ttf

Video
ID                                       : 1
Format                                   : AVC
Format/Info                              : Advanced Video Codec
Format profile                           : [email protected]
Format settings                          : CABAC / 5 Ref Frames
Format settings, CABAC                   : Yes
Format settings, Reference frames        : 5 frames
Codec ID                                 : V_MPEG4/ISO/AVC
Duration                                 : 23 min 39 s
Bit rate                                 : 1 501 kb/s
Width                                    : 1 280 pixels
Height                                   : 720 pixels
Display aspect ratio                     : 16:9
Frame rate mode                          : Constant
Frame rate                               : 23.976 (24000/1001) FPS
Color space                              : YUV
Chroma subsampling                       : 4:2:0
Bit depth                                : 8 bits
Scan type                                : Progressive
Bits/(Pixel*Frame)                       : 0.068
Stream size                              : 254 MiB (82%)
Default                                  : Yes
Forced                                   : No

Audio
ID                                       : 2
Format                                   : AAC LC
Format/Info                              : Advanced Audio Codec Low Complexity
Codec ID                                 : A_AAC-2
Duration                                 : 23 min 39 s
Bit rate                                 : 316 kb/s
Channel(s)                               : 2 channels
Channel layout                           : L R
Sampling rate                            : 48.0 kHz
Frame rate                               : 46.875 FPS (1024 SPF)
Compression mode                         : Lossy
Stream size                              : 53.4 MiB (17%)
Language                                 : Japanese
Default                                  : Yes
Forced                                   : No

Menu
00:00:00.000                             : :Hauptteil
00:22:07.000                             : :Ending
00:23:35.000                             : :Abspann
[/LEFT]
Code:
[LEFT]
General
Unique ID                                : 61063902707116338671548582239805484064 (0x2DF07AD90DC6FA585302DE4CD80DAC20)
Complete name                            : Kemono.Jihen.S01E01.Subbed.AAC.1080p.WebRip.x264.Repack-ABJ.mkv
Format                                   : Matroska
Format version                           : Version 4
File size                                : 767 MiB
Duration                                 : 23 min 39 s
Overall bit rate                         : 4 533 kb/s
Encoded date                             : UTC 2021-03-03 22:40:08
Writing application                      : mkvmerge v53.0.0 ('Fool's Gold') 64-bit
Writing library                          : libebml v1.4.1 + libmatroska v1.6.2 / Lavf58.42.101
Attachments                              : font.ttf

Video
ID                                       : 1
Format                                   : AVC
Format/Info                              : Advanced Video Codec
Format profile                           : [email protected]
Format settings                          : CABAC / 4 Ref Frames
Format settings, CABAC                   : Yes
Format settings, Reference frames        : 4 frames
Codec ID                                 : V_MPEG4/ISO/AVC
Duration                                 : 23 min 39 s
Bit rate                                 : 4 215 kb/s
Width                                    : 1 920 pixels
Height                                   : 1 080 pixels
Display aspect ratio                     : 16:9
Frame rate mode                          : Constant
Frame rate                               : 23.976 (24000/1001) FPS
Color space                              : YUV
Chroma subsampling                       : 4:2:0
Bit depth                                : 8 bits
Scan type                                : Progressive
Bits/(Pixel*Frame)                       : 0.085
Stream size                              : 713 MiB (93%)
Default                                  : Yes
Forced                                   : No

Audio
ID                                       : 2
Format                                   : AAC LC
Format/Info                              : Advanced Audio Codec Low Complexity
Codec ID                                 : A_AAC-2
Duration                                 : 23 min 39 s
Bit rate                                 : 316 kb/s
Channel(s)                               : 2 channels
Channel layout                           : L R
Sampling rate                            : 48.0 kHz
Frame rate                               : 46.875 FPS (1024 SPF)
Compression mode                         : Lossy
Stream size                              : 53.4 MiB (7%)
Language                                 : Japanese
Default                                  : Yes
Forced                                   : No

Menu
00:00:00.000                             : :Hauptteil
00:22:07.000                             : :Ending
00:23:35.000                             : :Abspann
[/LEFT]
Code:
[LEFT]
General
Unique ID                                : 307882396296250249228234939585155108559 (0xE79FFE1D80824CDB2C533F3FED890ECF)
Complete name                            : Kemono.Jihen.S01E01.Subbed.AAC.1080p.WebRip.10bit.x265.Repack-ABJ.mkv
Format                                   : Matroska
Format version                           : Version 4
File size                                : 405 MiB
Duration                                 : 23 min 39 s
Overall bit rate                         : 2 393 kb/s
Encoded date                             : UTC 2021-02-23 08:22:49
Writing application                      : mkvmerge v53.0.0 ('Fool's Gold') 64-bit
Writing library                          : libebml v1.4.1 + libmatroska v1.6.2
Attachments                              : font.ttf

Video
ID                                       : 1
Format                                   : HEVC
Format/Info                              : High Efficiency Video Coding
Format profile                           : Main [email protected]@Main
Codec ID                                 : V_MPEGH/ISO/HEVC
Duration                                 : 23 min 39 s
Bit rate                                 : 2 075 kb/s
Width                                    : 1 920 pixels
Height                                   : 1 080 pixels
Display aspect ratio                     : 16:9
Frame rate mode                          : Constant
Frame rate                               : 23.976 (24000/1001) FPS
Color space                              : YUV
Chroma subsampling                       : 4:2:0
Bit depth                                : 10 bits
Bits/(Pixel*Frame)                       : 0.042
Stream size                              : 351 MiB (87%)
Default                                  : Yes
Forced                                   : No

Audio
ID                                       : 2
Format                                   : AAC LC
Format/Info                              : Advanced Audio Codec Low Complexity
Codec ID                                 : A_AAC-2
Duration                                 : 23 min 39 s
Bit rate                                 : 316 kb/s
Channel(s)                               : 2 channels
Channel layout                           : L R
Sampling rate                            : 48.0 kHz
Frame rate                               : 46.875 FPS (1024 SPF)
Compression mode                         : Lossy
Stream size                              : 53.4 MiB (13%)
Language                                 : Japanese
Default                                  : No
Forced                                   : No

Menu
00:00:00.000                             : :Hauptteil
00:22:07.000                             : :Ending
00:23:35.000                             : :Abspann
[/LEFT]
720p:
6E8BDBCD82.png

1080p:
C50D76A719.png

1080p-10bit-x265:
8A6FA3E14E.png

To view the content, you need to Sign In or Register.

 
Oben