1. Die erweiterte Suche funktioniert wieder. Die LiveSearch wird gegen Ende der Woche wieder funktionieren.

Wir verwenden Cookies, um deinen Aufenthalt auf Animes.so möglichst angenehm gestalten zu können. Mehr erfahren

Kishuku Gakkou no Juliet | Boarding School Juliet [Laufend][Jap-Dub][Ger-Eng-Sub][720p|1080p][WebRip] - Amazon

Dieses Thema im Forum "Serien (GerSub)" wurde erstellt von Ta@, 5. Okt. 2018.

  1. Ta@

    Ta@ Erfahrener Otaku Otaku König

    Registriert seit:
    7. Juli 2016
    Beiträge:
    340
    Zustimmungen:
    11.619
    Kishuku Gakkou no Juliet
    Boarding School Juliet

    [​IMG]
    [​IMG]
    Kishuku Gakkou no Juliet handelt von Romio Inuzuka, dem Anführer des „Black Doggy House“-Wohnheimes und seiner Rivalin Juliet Percia, die das Wohnheim „White Cats House“ anführt. Ihr Ziel ist es, sich die Herschafft der Schule, die beide Parteien besuchen, unter den Nagel zu reißen. Was jedoch niemand weiß ist, dass Romio und Juliet insgeheim ineinander verliebt sind und sich nichts weiter als ein friedliches Liebesleben wünschen. Doch werden sie es schaffen, ihren Traum wahr werden zu lassen …?

    Folgen: 11/12
    Größe pro Folge: ~315 MB/~640 MB
    Folgendauer: ~24 Min
    Releaser: Ta@
    Art: Lizenzrelease
    Sprache: Japanisch
    Untertitel: Deutsch, Englisch
    Jahr: 2018
    Genres: Action, Alltagsleben, Komödie, Romanze
    Auflösung: 1280x720/1920x1080
    Format: MKV
    Quelle: WebRip
    Videocodec: x264
    Farbtiefe: 8Bit
    Audiocodec: AC3
    Publisher: Amazon
    Hoster: Share-Online

    [​IMG]
    Code:
    General Complete name : [Ta@]Boarding_School_Juliet_01_[Web,720p,AC3].mkv Format : Matroska Format version : Version 4 File size : 316 MiB Duration : 24 min 10 s Overall bit rate : 1 826 kb/s Encoded date : UTC 2018-10-05 17:33:54 Writing application : mkvmerge v10.0.0 ('To Drown In You') 64bit Writing library : libebml v1.3.4 + libmatroska v1.4.5 Attachments : lt.ttf Video ID : 1 Format : AVC Format/Info : Advanced Video Codec Format profile : High@L3.1 Format settings : CABAC / 5 Ref Frames Format settings, CABAC : Yes Format settings, RefFrames : 5 frames Codec ID : V_MPEG4/ISO/AVC Duration : 24 min 10 s Bit rate : 1 600 kb/s Width : 1 280 pixels Height : 720 pixels Display aspect ratio : 16:9 Frame rate mode : Constant Frame rate : 23.976 (24000/1001) FPS Color space : YUV Chroma subsampling : 4:2:0 Bit depth : 8 bits Scan type : Progressive Bits/(Pixel*Frame) : 0.072 Stream size : 277 MiB (88%) Default : Yes Forced : No Color range : Limited Color primaries : BT.709 Transfer characteristics : BT.709 Matrix coefficients : BT.709 Audio ID : 2 Format : E-AC-3 Format/Info : Enhanced AC-3 Commercial name : Dolby Digital Plus Codec ID : A_EAC3 Duration : 24 min 10 s Bit rate mode : Constant Bit rate : 224 kb/s Channel(s) : 2 channels Channel layout : L R Sampling rate : 48.0 kHz Frame rate : 31.250 FPS (1536 SPF) Compression mode : Lossy Stream size : 38.7 MiB (12%) Service kind : Complete Main Default : Yes Forced : No Text #1 ID : 3 Format : ASS Codec ID : S_TEXT/ASS Codec ID/Info : Advanced Sub Station Alpha Duration : 24 min 2 s Bit rate : 95 b/s Count of elements : 318 Compression mode : Lossless Stream size : 16.7 KiB (0%) Language : German Default : Yes Forced : No Text #2 ID : 4 Format : ASS Codec ID : S_TEXT/ASS Codec ID/Info : Advanced Sub Station Alpha Duration : 24 min 2 s Bit rate : 109 b/s Count of elements : 357 Compression mode : Lossless Stream size : 19.4 KiB (0%) Language : English Default : No Forced : No ​
    Code:
    General Complete name : [Ta@]Boarding_School_Juliet_01_[Web,1080p,AC3].mkv Format : Matroska Format version : Version 4 File size : 641 MiB Duration : 24 min 10 s Overall bit rate : 3 709 kb/s Encoded date : UTC 2018-10-05 17:34:08 Writing application : mkvmerge v10.0.0 ('To Drown In You') 64bit Writing library : libebml v1.3.4 + libmatroska v1.4.5 Attachments : lt.ttf Video ID : 1 Format : AVC Format/Info : Advanced Video Codec Format profile : High@L4 Format settings : CABAC / 4 Ref Frames Format settings, CABAC : Yes Format settings, RefFrames : 4 frames Codec ID : V_MPEG4/ISO/AVC Duration : 24 min 10 s Bit rate : 3 482 kb/s Width : 1 920 pixels Height : 1 080 pixels Display aspect ratio : 16:9 Frame rate mode : Constant Frame rate : 23.976 (24000/1001) FPS Color space : YUV Chroma subsampling : 4:2:0 Bit depth : 8 bits Scan type : Progressive Bits/(Pixel*Frame) : 0.070 Stream size : 602 MiB (94%) Default : Yes Forced : No Color range : Limited Color primaries : BT.709 Transfer characteristics : BT.709 Matrix coefficients : BT.709 Audio ID : 2 Format : E-AC-3 Format/Info : Enhanced AC-3 Commercial name : Dolby Digital Plus Codec ID : A_EAC3 Duration : 24 min 10 s Bit rate mode : Constant Bit rate : 224 kb/s Channel(s) : 2 channels Channel layout : L R Sampling rate : 48.0 kHz Frame rate : 31.250 FPS (1536 SPF) Compression mode : Lossy Stream size : 38.7 MiB (6%) Service kind : Complete Main Default : Yes Forced : No Text #1 ID : 3 Format : ASS Codec ID : S_TEXT/ASS Codec ID/Info : Advanced Sub Station Alpha Duration : 24 min 2 s Bit rate : 95 b/s Count of elements : 318 Compression mode : Lossless Stream size : 16.7 KiB (0%) Language : German Default : Yes Forced : No Text #2 ID : 4 Format : ASS Codec ID : S_TEXT/ASS Codec ID/Info : Advanced Sub Station Alpha Duration : 24 min 2 s Bit rate : 109 b/s Count of elements : 357 Compression mode : Lossless Stream size : 19.4 KiB (0%) Language : English Default : No Forced : No ​

    Anmerkung:
    Ich habe das Timing verbessert und die Font gefixt.

    720p:[​IMG]1080p:[​IMG]

    Geschützter Bereich
    Registriere dich oder logge dich ein, um den Inhalt sehen zu können
     
    Zuletzt bearbeitet: 14. Dez. 2018 um 21:33 Uhr
  2. Ta@

    Ta@ Erfahrener Otaku Otaku König

    Registriert seit:
    7. Juli 2016
    Beiträge:
    340
    Zustimmungen:
    11.619
    ~Folge 11 online~
     
    Stabilo gefällt das.