Wir verwenden Cookies, um deinen Aufenthalt auf Animes.so möglichst angenehm gestalten zu können. Mehr erfahren

Kizumonogatari I: Tekketsu-hen [Jap-Dub][Eng-Sub][720p|1080p][BluRay] - NoobSubs

Dieses Thema im Forum "Anime Movies (English)" wurde erstellt von Thinker, 18. Sep. 2016.

  1. Thinker
    Thinker

    Soundtrackmensch Animes.so Staff Otaku König

    Registriert seit:
    2. Apr. 2016
    Beiträge:
    161
    Zustimmungen:
    1.032

    Kizumonogatari I: Tekketsu-hen



    [​IMG]


    Kurzbeschreibung:


    Spieldauer: 64Min
    Genre: Action, Horror
    Mystery, Supernatural, Vampire
    Jahr: 2016
    Sprache: [​IMG]Japanisch
    Untertitel: [​IMG]Englisch
    Größe pro Folge: 930 MiB / 1.97 GiB
    Episodenanzahl: 1/1
    Format: MP4
    Auflösung: 720p (16:9) / 1080p (16:9)
    Videocodec: x264 (AVC)
    Audiocodec: AAC / AC-3
    Releasegruppe: NoobSubs
    Hoster: [​IMG]Uploaded


    Code:
    
    Format                                   : MPEG-4
    Format profile                           : Base Media
    Codec ID                                 : isom
    File size                                : 930 MiB
    Duration                                 : 1h 3mn
    Overall bit rate mode                    : Variable
    Overall bit rate                         : 2 051 Kbps
    Movie name                               : [NoobSubs] Kizumonogatari Movie I - Tekketsu-hen (720p Blu-ray 8bit AAC)
    Album                                    : Kizumonogatari I: Tekketsu-hen / Kizumonogatari Part 1: Iron-Blooded Arc - Scar Story
    Track name/Position                      : 1
    Performer                                : Subs: Modified [Commie]
    Encoded date                             : UTC 2016-08-10 21:52:48
    Tagged date                              : UTC 2016-08-10 21:55:26
    replaygain_track_gain                    : +0.60 dB
    replaygain_track_minmax                  : 97,186
    replaygain_track_peak                    : 1.750000
    replaygain_undo                          : -10,-10
    
    Video
    ID                                       : 1
    Format                                   : AVC
    Format/Info                              : Advanced Video Codec
    Format profile                           : High@L4
    Format settings, CABAC                   : Yes
    Format settings, ReFrames                : 6 frames
    Codec ID                                 : avc1
    Codec ID/Info                            : Advanced Video Coding
    Duration                                 : 1h 3mn
    Bit rate                                 : 1 834 Kbps
    Maximum bit rate                         : 15.1 Mbps
    Width                                    : 1 280 pixels
    Height                                   : 720 pixels
    Display aspect ratio                     : 16:9
    Frame rate mode                          : Constant
    Frame rate                               : 23.976 fps
    Color space                              : YUV
    Chroma subsampling                       : 4:2:0
    Bit depth                                : 8 bits
    Scan type                                : Progressive
    Bits/(Pixel*Frame)                       : 0.083
    Stream size                              : 831 MiB (89%)
    Title                                    : h264@GPAC0.6.2-DEV-rev681-g32e98cd-master
    Writing library                          : x264 core 148 r2665 a01e339
    Encoding settings                        : cabac=1 / ref=6 / deblock=1:0:0 / analyse=0x3:0x133 / me=umh / subme=10 / psy=1 / psy_rd=1.00:0.00 / mixed_ref=1 / me_range=24 / chroma_me=1 / trellis=2 / 8x8dct=1 / cqm=0 / deadzone=21,11 / fast_pskip=1 / chroma_qp_offset=-2 / threads=12 / lookahead_threads=2 / sliced_threads=0 / nr=0 / decimate=1 / interlaced=0 / bluray_compat=0 / constrained_intra=0 / bframes=7 / b_pyramid=2 / b_adapt=2 / b_bias=0 / direct=3 / weightb=1 / open_gop=0 / weightp=2 / keyint=250 / keyint_min=23 / scenecut=40 / intra_refresh=0 / rc_lookahead=60 / rc=crf / mbtree=1 / crf=17.3 / qcomp=0.60 / qpmin=0 / qpmax=69 / qpstep=4 / ip_ratio=1.40 / aq=1:1.50
    Encoded date                             : UTC 2016-08-10 21:52:48
    Tagged date                              : UTC 2016-08-10 21:52:58
    
    Audio
    ID                                       : 2
    Format                                   : AAC
    Format/Info                              : Advanced Audio Codec
    Format profile                           : LC
    Codec ID                                 : 40
    Duration                                 : 1h 3mn
    Bit rate mode                            : Variable
    Bit rate                                 : 214 Kbps
    Maximum bit rate                         : 307 Kbps
    Channel(s)                               : 2 channels
    Channel positions                        : Front: L R
    Sampling rate                            : 48.0 KHz
    Compression mode                         : Lossy
    Stream size                              : 97.0 MiB (10%)
    Encoded date                             : UTC 2016-08-09 23:26:30
    Tagged date                              : UTC 2016-08-10 21:52:58
    
    

    Code:
    
    Format                                   : MPEG-4
    Format profile                           : Base Media
    Codec ID                                 : isom
    File size                                : 1.97 GiB
    Duration                                 : 1h 3mn
    Overall bit rate                         : 4 462 Kbps
    Movie name                               : [NoobSubs] Kizumonogatari Movie I - Tekketsu-hen (1080p Blu-ray 8bit AC3)
    Album                                    : Kizumonogatari I: Tekketsu-hen / Kizumonogatari Part 1: Iron-Blooded Arc - Scar Story
    Track name/Position                      : 1
    Performer                                : Subs: Modified [Commie]
    Encoded date                             : UTC 2016-08-10 21:51:03
    Tagged date                              : UTC 2016-08-10 21:51:03
    
    Video
    ID                                       : 1
    Format                                   : AVC
    Format/Info                              : Advanced Video Codec
    Format profile                           : High@L4
    Format settings, CABAC                   : Yes
    Format settings, ReFrames                : 4 frames
    Codec ID                                 : avc1
    Codec ID/Info                            : Advanced Video Coding
    Duration                                 : 1h 3mn
    Bit rate                                 : 3 820 Kbps
    Maximum bit rate                         : 24.8 Mbps
    Width                                    : 1 920 pixels
    Height                                   : 1 080 pixels
    Display aspect ratio                     : 16:9
    Frame rate mode                          : Constant
    Frame rate                               : 23.976 fps
    Color space                              : YUV
    Chroma subsampling                       : 4:2:0
    Bit depth                                : 8 bits
    Scan type                                : Progressive
    Bits/(Pixel*Frame)                       : 0.077
    Stream size                              : 1.69 GiB (86%)
    Title                                    : h264@GPAC0.6.2-DEV-rev681-g32e98cd-master
    Writing library                          : x264 core 148 r2665 a01e339
    Encoding settings                        : cabac=1 / ref=4 / deblock=1:0:0 / analyse=0x3:0x133 / me=umh / subme=10 / psy=1 / psy_rd=1.00:0.00 / mixed_ref=1 / me_range=24 / chroma_me=1 / trellis=2 / 8x8dct=1 / cqm=0 / deadzone=21,11 / fast_pskip=1 / chroma_qp_offset=-2 / threads=12 / lookahead_threads=2 / sliced_threads=0 / nr=0 / decimate=1 / interlaced=0 / bluray_compat=0 / constrained_intra=0 / bframes=7 / b_pyramid=2 / b_adapt=2 / b_bias=0 / direct=3 / weightb=1 / open_gop=0 / weightp=2 / keyint=250 / keyint_min=23 / scenecut=40 / intra_refresh=0 / rc_lookahead=60 / rc=crf / mbtree=1 / crf=17.3 / qcomp=0.60 / qpmin=0 / qpmax=69 / qpstep=4 / ip_ratio=1.40 / aq=1:1.50
    Encoded date                             : UTC 2016-08-10 21:51:03
    Tagged date                              : UTC 2016-08-10 21:51:39
    
    Audio
    ID                                       : 2
    Format                                   : AC-3
    Format/Info                              : Audio Coding 3
    Mode extension                           : CM (complete main)
    Format settings, Endianness              : Big
    Codec ID                                 : ac-3
    Duration                                 : 1h 3mn
    Bit rate mode                            : Constant
    Bit rate                                 : 640 Kbps
    Maximum bit rate                         : 676 Kbps
    Channel(s)                               : 6 channels
    Channel positions                        : Front: L C R, Side: L R, LFE
    Sampling rate                            : 48.0 KHz
    Bit depth                                : 16 bits
    Compression mode                         : Lossy
    Stream size                              : 290 MiB (14%)
    Title                                    : 1][4929D3E2].ac3@GPAC0.6.2-DEV-rev681-g32e98cd-master
    Encoded date                             : UTC 2016-08-10 21:51:27
    Tagged date                              : UTC 2016-08-10 21:51:39
    
    



    [​IMG]
    Geschützter Bereich
    Registriere dich oder logge dich ein, um den Inhalt sehen zu können
    Animes.so Release Manager
     
    Virgel, Learza, Kthulhut und 39 anderen gefällt das.

Diese Seite empfehlen