Wir verwenden Cookies, um deinen Aufenthalt auf Animes.so möglichst angenehm gestalten zu können. Mehr erfahren

Kono Subarashii 2 | KonoSuba 2 [Laufend][Ger-Jap-Dub][Ger-Sub][AC-3|DTS-HD][720p|1080p][BluRay] - Fuuko

Dieses Thema im Forum "Anime Serien (Deutsch)" wurde erstellt von Fuuko, 1. Aug. 2020 um 19:46 Uhr.

  1. Fuuko
    Fuuko

    Uploader Otaku König

    Registriert seit:
    19. Sep. 2018
    Beiträge:
    318
    Zustimmungen:
    13.745
    Kono Subarashii Sekai ni Shukufuku o! 2
    KonoSuba: God’s blessing on this wonderful world! 2

    KonoSuba 2

    [​IMG]

    [​IMG]
    [​IMG]
    Episoden: 04 / 10
    Spieldauer: 24 Min.
    Source: Deutsche Original BluRay
    Release by: Fuuko
    Format: mkv
    Sprache: Deutsch [2.0] | Japanisch [2.0]
    Untertitel: Deutsch (Full)
    Audio: AC-3 [384 kb/s] | DTS-HD [~2050 kb/s]
    Auflösung : 1280x720 | 1920x1080
    Größe: 800MB | 2100MB | 2650MB
    Code:
    Complete name  : KonoSuba.2.E01.German.AC3.DL.720p.BluRay.x264-Fuuko.mkv
    Format  : Matroska
    Format version  : Version 4
    File size  : 782 MiB
    Duration  : 25 min 10 s
    Overall bit rate  : 4 342 kb/s
    Encoded date  : UTC 2020-08-01 13:28:10
    Writing application  : mkvmerge v47.0.0 ('Black Flag') 64-bit
    Writing library  : libebml v1.3.10 + libmatroska v1.5.2
    
    Video
    ID  : 1
    Format  : AVC
    Format/Info  : Advanced Video Codec
    Format profile  : High@L4.1
    Format settings  : CABAC / 4 Ref Frames
    Format settings, CABAC  : Yes
    Format settings, ReFrames  : 4 frames
    Codec ID  : V_MPEG4/ISO/AVC
    Duration  : 25 min 10 s
    Bit rate  : 3 556 kb/s
    Width  : 1 280 pixels
    Height  : 720 pixels
    Display aspect ratio  : 16:9
    Frame rate mode  : Constant
    Frame rate  : 23.976 (24000/1001) FPS
    Color space  : YUV
    Chroma subsampling  : 4:2:0
    Bit depth  : 8 bits
    Scan type  : Progressive
    Bits/(Pixel*Frame)  : 0.161
    Stream size  : 640 MiB (82%)
    Writing library  : x264 core 157 r2935 545de2f
    Encoding settings  : cabac=1 / ref=3 / deblock=1:0:0 / analyse=0x3:0x133 / me=umh / subme=9 / psy=1 / psy_rd=1.00:0.00 / mixed_ref=1 / me_range=32 / chroma_me=1 / trellis=2 / 8x8dct=1 / cqm=0 / deadzone=21,11 / fast_pskip=0 / chroma_qp_offset=-2 / threads=12 / lookahead_threads=1 / sliced_threads=0 / nr=0 / decimate=0 / interlaced=0 / bluray_compat=0 / constrained_intra=0 / bframes=3 / b_pyramid=2 / b_adapt=2 / b_bias=0 / direct=3 / weightb=1 / open_gop=0 / weightp=2 / keyint=250 / keyint_min=24 / scenecut=40 / intra_refresh=0 / rc_lookahead=48 / rc=crf / mbtree=1 / crf=16.0 / qcomp=0.70 / qpmin=0 / qpmax=69 / qpstep=4 / vbv_maxrate=62500 / vbv_bufsize=78125 / crf_max=0.0 / nal_hrd=none / filler=0 / ip_ratio=1.40 / aq=3:1.00
    Default  : Yes
    Forced  : No
    Color range  : Limited
    Color primaries  : BT.709
    Transfer characteristics  : BT.709
    Matrix coefficients  : BT.709
    
    Audio #1
    ID  : 2
    ID in the original source m : 4352 (0x1100)
    Format  : AC-3
    Format/Info  : Audio Coding 3
    Commercial name  : Dolby Digital
    Codec ID  : A_AC3
    Duration  : 25 min 10 s
    Bit rate mode  : Constant
    Bit rate  : 384 kb/s
    Channel(s)  : 2 channels
    Channel layout  : L R
    Sampling rate  : 48.0 kHz
    Frame rate  : 31.250 FPS (1536 SPF)
    Bit depth  : 16 bits
    Compression mode  : Lossy
    Delay relative to video  : -21 ms
    Stream size  : 69.1 MiB (9%)
    Language  : German
    Service kind  : Complete Main
    Default  : Yes
    Forced  : No
    Original source medium  : Blu-ray
    
    Audio #2
    ID  : 3
    ID in the original source m : 4353 (0x1101)
    Format  : AC-3
    Format/Info  : Audio Coding 3
    Commercial name  : Dolby Digital
    Codec ID  : A_AC3
    Duration  : 25 min 10 s
    Bit rate mode  : Constant
    Bit rate  : 384 kb/s
    Channel(s)  : 2 channels
    Channel layout  : L R
    Sampling rate  : 48.0 kHz
    Frame rate  : 31.250 FPS (1536 SPF)
    Bit depth  : 16 bits
    Compression mode  : Lossy
    Delay relative to video  : -21 ms
    Stream size  : 69.1 MiB (9%)
    Language  : Japanese
    Service kind  : Complete Main
    Default  : No
    Forced  : No
    Original source medium  : Blu-ray
    
    Text
    ID  : 4
    ID in the original source m : 4608 (0x1200)
    Format  : PGS
    Muxing mode  : zlib
    Codec ID  : S_HDMV/PGS
    Codec ID/Info  : Picture based subtitle format used on BDs/HD-DVDs
    Duration  : 23 min 12 s
    Bit rate  : 47.2 kb/s
    Count of elements  : 626
    Stream size  : 7.84 MiB (1%)
    Language  : German
    Default  : Yes
    Forced  : No
    Original source medium  : Blu-ray
    
    Menu
    00:00:00.000  : en:Chapter 01
    00:01:04.981  : en:Chapter 02
    00:02:35.446  : en:Chapter 03
    00:13:53.165  : en:Chapter 04
    00:23:30.450  : en:Chapter 05
    00:25:00.457  : en:Chapter 06
    Code:
    Complete name  : KonoSuba.2.E01.German.AC3.DL.1080p.BluRay.x264-Fuuko.mkv
    Format  : Matroska
    Format version  : Version 4
    File size  : 2.03 GiB
    Duration  : 25 min 10 s
    Overall bit rate  : 11.6 Mb/s
    Encoded date  : UTC 2020-08-01 13:30:10
    Writing application  : mkvmerge v47.0.0 ('Black Flag') 64-bit
    Writing library  : libebml v1.3.10 + libmatroska v1.5.2
    
    Video
    ID  : 1
    Format  : AVC
    Format/Info  : Advanced Video Codec
    Format profile  : High@L4.1
    Format settings  : CABAC / 4 Ref Frames
    Format settings, CABAC  : Yes
    Format settings, ReFrames  : 4 frames
    Codec ID  : V_MPEG4/ISO/AVC
    Duration  : 25 min 10 s
    Bit rate  : 10.8 Mb/s
    Width  : 1 920 pixels
    Height  : 1 080 pixels
    Display aspect ratio  : 16:9
    Frame rate mode  : Constant
    Frame rate  : 23.976 (24000/1001) FPS
    Color space  : YUV
    Chroma subsampling  : 4:2:0
    Bit depth  : 8 bits
    Scan type  : Progressive
    Bits/(Pixel*Frame)  : 0.217
    Stream size  : 1.89 GiB (93%)
    Writing library  : x264 core 157 r2935 545de2f
    Encoding settings  : cabac=1 / ref=3 / deblock=1:0:0 / analyse=0x3:0x133 / me=umh / subme=9 / psy=1 / psy_rd=1.00:0.00 / mixed_ref=1 / me_range=32 / chroma_me=1 / trellis=2 / 8x8dct=1 / cqm=0 / deadzone=21,11 / fast_pskip=0 / chroma_qp_offset=-2 / threads=12 / lookahead_threads=1 / sliced_threads=0 / nr=0 / decimate=0 / interlaced=0 / bluray_compat=0 / constrained_intra=0 / bframes=3 / b_pyramid=2 / b_adapt=2 / b_bias=0 / direct=3 / weightb=1 / open_gop=0 / weightp=2 / keyint=250 / keyint_min=24 / scenecut=40 / intra_refresh=0 / rc_lookahead=48 / rc=crf / mbtree=1 / crf=16.0 / qcomp=0.70 / qpmin=0 / qpmax=69 / qpstep=4 / vbv_maxrate=62500 / vbv_bufsize=78125 / crf_max=0.0 / nal_hrd=none / filler=0 / ip_ratio=1.40 / aq=3:1.00
    Default  : Yes
    Forced  : No
    Color range  : Limited
    Color primaries  : BT.709
    Transfer characteristics  : BT.709
    Matrix coefficients  : BT.709
    
    Audio #1
    ID  : 2
    ID in the original source m : 4352 (0x1100)
    Format  : AC-3
    Format/Info  : Audio Coding 3
    Commercial name  : Dolby Digital
    Codec ID  : A_AC3
    Duration  : 25 min 10 s
    Bit rate mode  : Constant
    Bit rate  : 384 kb/s
    Channel(s)  : 2 channels
    Channel layout  : L R
    Sampling rate  : 48.0 kHz
    Frame rate  : 31.250 FPS (1536 SPF)
    Bit depth  : 16 bits
    Compression mode  : Lossy
    Delay relative to video  : -21 ms
    Stream size  : 69.1 MiB (3%)
    Language  : German
    Service kind  : Complete Main
    Default  : Yes
    Forced  : No
    Original source medium  : Blu-ray
    
    Audio #2
    ID  : 3
    ID in the original source m : 4353 (0x1101)
    Format  : AC-3
    Format/Info  : Audio Coding 3
    Commercial name  : Dolby Digital
    Codec ID  : A_AC3
    Duration  : 25 min 10 s
    Bit rate mode  : Constant
    Bit rate  : 384 kb/s
    Channel(s)  : 2 channels
    Channel layout  : L R
    Sampling rate  : 48.0 kHz
    Frame rate  : 31.250 FPS (1536 SPF)
    Bit depth  : 16 bits
    Compression mode  : Lossy
    Delay relative to video  : -21 ms
    Stream size  : 69.1 MiB (3%)
    Language  : Japanese
    Service kind  : Complete Main
    Default  : No
    Forced  : No
    Original source medium  : Blu-ray
    
    Text
    ID  : 4
    ID in the original source m : 4608 (0x1200)
    Format  : PGS
    Muxing mode  : zlib
    Codec ID  : S_HDMV/PGS
    Codec ID/Info  : Picture based subtitle format used on BDs/HD-DVDs
    Duration  : 23 min 12 s
    Bit rate  : 47.2 kb/s
    Count of elements  : 626
    Stream size  : 7.84 MiB (0%)
    Language  : German
    Default  : Yes
    Forced  : No
    Original source medium  : Blu-ray
    
    Menu
    00:00:00.000  : en:Chapter 01
    00:01:04.981  : en:Chapter 02
    00:02:35.446  : en:Chapter 03
    00:13:53.165  : en:Chapter 04
    00:23:30.450  : en:Chapter 05
    00:25:00.457  : en:Chapter 06
    Code:
    Complete name  : KonoSuba.2.E01.German.DTS.DL.1080p.BluRay.x264-Fuuko.mkv
    Format  : Matroska
    Format version  : Version 4
    File size  : 2.53 GiB
    Duration  : 25 min 10 s
    Overall bit rate mode  : Variable
    Overall bit rate  : 14.4 Mb/s
    Encoded date  : UTC 2020-08-01 13:30:57
    Writing application  : mkvmerge v47.0.0 ('Black Flag') 64-bit
    Writing library  : libebml v1.3.10 + libmatroska v1.5.2
    
    Video
    ID  : 1
    Format  : AVC
    Format/Info  : Advanced Video Codec
    Format profile  : High@L4.1
    Format settings  : CABAC / 4 Ref Frames
    Format settings, CABAC  : Yes
    Format settings, ReFrames  : 4 frames
    Codec ID  : V_MPEG4/ISO/AVC
    Duration  : 25 min 10 s
    Bit rate  : 10.8 Mb/s
    Width  : 1 920 pixels
    Height  : 1 080 pixels
    Display aspect ratio  : 16:9
    Frame rate mode  : Constant
    Frame rate  : 23.976 (24000/1001) FPS
    Color space  : YUV
    Chroma subsampling  : 4:2:0
    Bit depth  : 8 bits
    Scan type  : Progressive
    Bits/(Pixel*Frame)  : 0.217
    Stream size  : 1.89 GiB (75%)
    Writing library  : x264 core 157 r2935 545de2f
    Encoding settings  : cabac=1 / ref=3 / deblock=1:0:0 / analyse=0x3:0x133 / me=umh / subme=9 / psy=1 / psy_rd=1.00:0.00 / mixed_ref=1 / me_range=32 / chroma_me=1 / trellis=2 / 8x8dct=1 / cqm=0 / deadzone=21,11 / fast_pskip=0 / chroma_qp_offset=-2 / threads=12 / lookahead_threads=1 / sliced_threads=0 / nr=0 / decimate=0 / interlaced=0 / bluray_compat=0 / constrained_intra=0 / bframes=3 / b_pyramid=2 / b_adapt=2 / b_bias=0 / direct=3 / weightb=1 / open_gop=0 / weightp=2 / keyint=250 / keyint_min=24 / scenecut=40 / intra_refresh=0 / rc_lookahead=48 / rc=crf / mbtree=1 / crf=16.0 / qcomp=0.70 / qpmin=0 / qpmax=69 / qpstep=4 / vbv_maxrate=62500 / vbv_bufsize=78125 / crf_max=0.0 / nal_hrd=none / filler=0 / ip_ratio=1.40 / aq=3:1.00
    Default  : Yes
    Forced  : No
    Color range  : Limited
    Color primaries  : BT.709
    Transfer characteristics  : BT.709
    Matrix coefficients  : BT.709
    
    Audio #1
    ID  : 2
    ID in the original source m : 4352 (0x1100)
    Format  : DTS XLL
    Format/Info  : Digital Theater Systems
    Commercial name  : DTS-HD Master Audio
    Codec ID  : A_DTS
    Duration  : 25 min 10 s
    Bit rate mode  : Variable
    Bit rate  : 2 052 kb/s
    Channel(s)  : 2 channels
    Channel layout  : L R
    Sampling rate  : 48.0 kHz
    Frame rate  : 93.750 FPS (512 SPF)
    Bit depth  : 24 bits
    Compression mode  : Lossless
    Delay relative to video  : -21 ms
    Stream size  : 369 MiB (14%)
    Language  : German
    Default  : Yes
    Forced  : No
    Original source medium  : Blu-ray
    
    Audio #2
    ID  : 3
    ID in the original source m : 4353 (0x1101)
    Format  : DTS XLL
    Format/Info  : Digital Theater Systems
    Commercial name  : DTS-HD Master Audio
    Codec ID  : A_DTS
    Duration  : 25 min 10 s
    Bit rate mode  : Variable
    Bit rate  : 1 569 kb/s
    Channel(s)  : 2 channels
    Channel layout  : L R
    Sampling rate  : 48.0 kHz
    Frame rate  : 93.750 FPS (512 SPF)
    Bit depth  : 16 bits
    Compression mode  : Lossless
    Delay relative to video  : -21 ms
    Stream size  : 282 MiB (11%)
    Language  : Japanese
    Default  : No
    Forced  : No
    Original source medium  : Blu-ray
    
    Text
    ID  : 4
    ID in the original source m : 4608 (0x1200)
    Format  : PGS
    Muxing mode  : zlib
    Codec ID  : S_HDMV/PGS
    Codec ID/Info  : Picture based subtitle format used on BDs/HD-DVDs
    Duration  : 23 min 12 s
    Bit rate  : 47.2 kb/s
    Count of elements  : 626
    Stream size  : 7.84 MiB (0%)
    Language  : German
    Default  : Yes
    Forced  : No
    Original source medium  : Blu-ray
    
    Menu
    00:00:00.000  : en:Chapter 01
    00:01:04.981  : en:Chapter 02
    00:02:35.446  : en:Chapter 03
    00:13:53.165  : en:Chapter 04
    00:23:30.450  : en:Chapter 05
    00:25:00.457  : en:Chapter 06
    [​IMG]
    720p - AC-3 [​IMG]
    1080p - AC-3 [​IMG]
    1080p - DTS-HD [​IMG]
    Geschützter Bereich
    Registriere dich oder logge dich ein, um den Inhalt sehen zu können
     
    Aluaran, riversen, Ookami77 und 44 anderen gefällt das.

Diese Seite empfehlen