Wir verwenden Cookies, um deinen Aufenthalt auf Animes.so möglichst angenehm gestalten zu können. Mehr erfahren

Kore wa Zombie desu ka? | Is This a Zombie? [Ger-Dub][720p][WebRip] - Fuuko

Dieses Thema im Forum "Download Friedhof" wurde erstellt von Fuuko, 5. Mai 2019.

  1. Fuuko

    Fuuko Erfahrener Otaku Otaku König

    Registriert seit:
    19. Sep. 2018
    Beiträge:
    226
    Zustimmungen:
    9.221
    Kore wa Zombie desu ka?
    Is This a Zombie?


    [​IMG]

    [​IMG]
    [​IMG]
    Episoden: 12 / 12
    Spieldauer: 24 Min.
    Source: WebRip
    Format: MKV
    Video-Codec: x264
    Audio-Codec: AAC
    Sprache: Deutsch
    Publisher: pro7maxx
    Auflösung: 1280x720
    Größe: ~800 MB
    Code:
    Complete name               : Is.This.a.Zombie.E01.Yes.I'm.a.Magical.Girl.GerDub.720p.WebRip.x264-Fuuko.mkv
    Format                      : Matroska
    Format version              : Version 4
    File size                   : 778 MiB
    Duration                    : 23 min 51 s
    Overall bit rate            : 4 560 kb/s
    Encoded date                : UTC 2019-05-05 18:17:42
    Writing application         : mkvmerge v10.0.0 ('To Drown In You') 64bit
    Writing library             : libebml v1.3.4 + libmatroska v1.4.5
    
    Video
    ID                          : 1
    Format                      : AVC
    Format/Info                 : Advanced Video Codec
    Format profile              : Main@L3.1
    Format settings             : CABAC / 4 Ref Frames
    Format settings, CABAC      : Yes
    Format settings, ReFrames   : 4 frames
    Codec ID                    : V_MPEG4/ISO/AVC
    Duration                    : 23 min 51 s
    Bit rate                    : 4 430 kb/s
    Width                       : 1 280 pixels
    Height                      : 720 pixels
    Display aspect ratio        : 16:9
    Frame rate mode             : Constant
    Frame rate                  : 25.000 FPS
    Color space                 : YUV
    Chroma subsampling          : 4:2:0
    Bit depth                   : 8 bits
    Scan type                   : Progressive
    Bits/(Pixel*Frame)          : 0.192
    Stream size                 : 756 MiB (97%)
    Writing library             : x264 core 157 r2969M d4099dd
    Default                     : Yes
    Forced                      : No
    Color range                 : Limited
    Color primaries             : BT.709
    Transfer characteristics    : BT.709
    Matrix coefficients         : BT.709
    
    Audio
    ID                          : 2
    Format                      : AAC LC
    Format/Info                 : Advanced Audio Codec Low Complexity
    Codec ID                    : A_AAC-2
    Duration                    : 23 min 51 s
    Bit rate                    : 128 kb/s
    Channel(s)                  : 2 channels
    Channel layout              : L R
    Sampling rate               : 48.0 kHz
    Frame rate                  : 46.875 FPS (1024 SPF)
    Compression mode            : Lossy
    Stream size                 : 21.8 MiB (3%)
    Language                    : German
    Default                     : Yes
    Forced                      : No
    [​IMG]
    720p [​IMG]
    Geschützter Bereich
    Registriere dich oder logge dich ein, um den Inhalt sehen zu können
     
    Zuletzt bearbeitet: 15. Sep. 2019
    Xehernoth, xXBaaMXx, Tequila und 67 anderen gefällt das.
  2. Fuuko

    Fuuko Erfahrener Otaku Otaku König

    Registriert seit:
    19. Sep. 2018
    Beiträge:
    226
    Zustimmungen:
    9.221
    ~ Episode 12 - Ja, es ist noch nicht zu Ende ~
    Staffel / Anime ist damit beendet
     
    songucku gefällt das.