1. Aktuell funktioniert unser Image Proxy nicht mehr ordnungsgemäß, sodass keine Bilder mehr angezeigt werden. Wir kümmern uns darum!

Wir verwenden Cookies, um deinen Aufenthalt auf Animes.so möglichst angenehm gestalten zu können. Mehr erfahren

Kyuukyoku Shinka Shita Full Dive RPG ga Genjitsu yori mo Kusogee dattara | Full Dive: This Ultimate Next-Gen Full Dive RPG Is Even Shittier than Real Life! [Laufend][JapDub][GerSub][720p|1080p][WebRip] - Wakanim

Dieses Thema im Forum "Anime Serien (Deutsche Untertitel)" wurde erstellt von Tanuki, 7. Apr. 2021.

  1. Tanuki
    Tanuki

    Uploader Otaku Experte

    Registriert seit:
    7. Juli 2016
    Beiträge:
    88
    Zustimmungen:
    18.692
    Kyuukyoku Shinka Shita Full Dive RPG ga Genjitsu yori mo Kusogee dattara
    Full Dive: This Ultimate Next-Gen Full Dive RPG Is Even Shittier than Real Life!
    Kiwame Quest, Kyuukyoku Shinka Shita Full Dive RPG ga Genjitsu yori mo Kuso Game Dattara, New Game Was Born. It Was Accepted with Shock and Enthusiasm. But No One Can Clear it.

    [​IMG]
    [​IMG]

    Der durchschnittliche Oberschüler Hiro Yuki kam durch einen Zufall an das Full-Dive-RPG »Kiwame Quest«. Das Spiel, das mithilfe der besten Technologie erstellt wurde, wird seinem Ruf als »das Nonplusultra an Realismus« gerecht – die Grafik, das Verhalten der NPC, der Duft der Pflanzen und Bäume und sogar der Wind, der über die Haut streift – alles ist von höchster Qualität.

    Unglücklicherweise ist das Spiel bereits eine virtuelle Geisterstadt, nachdem es Beschwerden darüber gab, dass dieses für das eigene Wohl etwas zu realistisch sei. Es ist nahezu unmöglich, die Quests abzuschließen, da die Spieler in »Kiwame Quest« körperlich genauso fit sein müssen, wie sie es im realen Leben sein müssten, um diese Aufgabe zu erfüllen. Die Spieler spüren echte Schmerzen, wenn sie getroffen werden, und die Heilung von Stichwunden dauert Tage.


    Folgen: 3/12
    Größe pro Folge: ~464 MB/~778 MB
    Folgendauer: ~24 Min
    Releaser: Tanuki
    Art: Lizenzrelease
    Sprache: Japanisch
    Untertitel: Deutsch
    Jahr: 2021
    Genres: Action, Ecchi, Fantasy, Komödie, Scifi
    Auflösung: 1280x720/1920x1080
    Format: MKV
    Quelle: WebRip
    Videocodec: x264
    Farbtiefe: 8Bit
    Audiocodec: AAC
    Publisher: AniMoon Publishing GmbH
    Hoster: Uploaded, ddownload

    [​IMG]
    Code:
    General Unique ID : 163493569538642086011202558969471565669 (0x7AFFB754399EFCAA556AAF87CA77FF65) Complete name : Full.Dive.E01.GerSub.AAC.720p.WebRip.x264-Tanuki.mkv Format : Matroska Format version : Version 4 File size : 464 MiB Duration : 23 min 48 s Overall bit rate : 2 726 kb/s Encoded date : UTC 2021-04-07 14:58:56 Writing application : mkvmerge v52.0.0 ('Secret For The Mad') 64-bit Writing library : libebml v1.4.1 + libmatroska v1.6.2 Attachments : font.ttf Video ID : 1 Format : AVC Format/Info : Advanced Video Codec Format profile : High@L3.1 Format settings : CABAC / 4 Ref Frames Format settings, CABAC : Yes Format settings, Reference frames : 4 frames Codec ID : V_MPEG4/ISO/AVC Duration : 23 min 48 s Bit rate : 2 499 kb/s Width : 1 280 pixels Height : 720 pixels Display aspect ratio : 16:9 Frame rate mode : Constant Frame rate : 23.976 (24000/1001) FPS Color space : YUV Chroma subsampling : 4:2:0 Bit depth : 8 bits Scan type : Progressive Bits/(Pixel*Frame) : 0.113 Stream size : 425 MiB (92%) Writing library : x264 core 155 r2901 7d0ff22 Encoding settings : cabac=1 / ref=1 / deblock=1:0:0 / analyse=0x3:0x113 / me=hex / subme=2 / psy=1 / psy_rd=1.00:0.00 / mixed_ref=0 / me_range=16 / chroma_me=1 / trellis=0 / 8x8dct=1 / cqm=0 / deadzone=21,11 / fast_pskip=1 / chroma_qp_offset=0 / threads=12 / lookahead_threads=4 / sliced_threads=0 / nr=0 / decimate=1 / interlaced=0 / bluray_compat=0 / constrained_intra=0 / bframes=3 / b_pyramid=2 / b_adapt=1 / b_bias=0 / direct=1 / weightb=1 / open_gop=0 / weightp=1 / keyint=250 / keyint_min=23 / scenecut=40 / intra_refresh=0 / rc_lookahead=10 / rc=crf / mbtree=1 / crf=14.0 / qcomp=0.60 / qpmin=0 / qpmax=69 / qpstep=4 / ip_ratio=1.40 / aq=1:1.00 Default : Yes Forced : No Audio ID : 2 Format : AAC LC Format/Info : Advanced Audio Codec Low Complexity Codec ID : A_AAC-2 Duration : 23 min 48 s Bit rate : 224 kb/s Channel(s) : 2 channels Channel layout : L R Sampling rate : 48.0 kHz Frame rate : 46.875 FPS (1024 SPF) Compression mode : Lossy Delay relative to video : -21 ms Stream size : 38.2 MiB (8%) Language : Japanese Default : Yes Forced : No ​
    Code:
    General Unique ID : 178559679831540599324390962503527283155 (0x865557EAAFA6412157AFC6E98E2DB9D3) Complete name : Full.Dive.E01.GerSub.AAC.1080p.WebRip.x264-Tanuki.mkv Format : Matroska Format version : Version 4 File size : 779 MiB Duration : 23 min 48 s Overall bit rate : 4 574 kb/s Encoded date : UTC 2021-04-07 14:58:54 Writing application : mkvmerge v52.0.0 ('Secret For The Mad') 64-bit Writing library : libebml v1.4.1 + libmatroska v1.6.2 Attachments : font.ttf Video ID : 1 Format : AVC Format/Info : Advanced Video Codec Format profile : High@L4 Format settings : CABAC / 4 Ref Frames Format settings, CABAC : Yes Format settings, Reference frames : 4 frames Codec ID : V_MPEG4/ISO/AVC Duration : 23 min 48 s Bit rate : 4 443 kb/s Width : 1 920 pixels Height : 1 080 pixels Display aspect ratio : 16:9 Frame rate mode : Constant Frame rate : 23.976 (24000/1001) FPS Color space : YUV Chroma subsampling : 4:2:0 Bit depth : 8 bits Scan type : Progressive Bits/(Pixel*Frame) : 0.089 Stream size : 756 MiB (97%) Writing library : x264 core 155 r2901 7d0ff22 Encoding settings : cabac=1 / ref=2 / deblock=1:0:0 / analyse=0x3:0x113 / me=hex / subme=6 / psy=1 / psy_rd=1.00:0.00 / mixed_ref=1 / me_range=16 / chroma_me=1 / trellis=1 / 8x8dct=1 / cqm=0 / deadzone=21,11 / fast_pskip=1 / chroma_qp_offset=-2 / threads=12 / lookahead_threads=2 / sliced_threads=0 / nr=0 / decimate=1 / interlaced=0 / bluray_compat=0 / constrained_intra=0 / bframes=3 / b_pyramid=2 / b_adapt=1 / b_bias=0 / direct=1 / weightb=1 / open_gop=0 / weightp=1 / keyint=250 / keyint_min=23 / scenecut=40 / intra_refresh=0 / rc_lookahead=30 / rc=crf / mbtree=1 / crf=16.0 / qcomp=0.60 / qpmin=0 / qpmax=69 / qpstep=4 / ip_ratio=1.40 / aq=1:1.00 Default : Yes Forced : No Audio ID : 2 Format : AAC LC Format/Info : Advanced Audio Codec Low Complexity Codec ID : A_AAC-2 Duration : 23 min 48 s Bit rate : 128 kb/s Channel(s) : 2 channels Channel layout : L R Sampling rate : 48.0 kHz Frame rate : 46.875 FPS (1024 SPF) Compression mode : Lossy Stream size : 21.8 MiB (3%) Language : Japanese Default : Yes Forced : No ​

    720p:[​IMG]1080p:[​IMG]

    Geschützter Bereich
    Registriere dich oder logge dich ein, um den Inhalt sehen zu können
     
    Zuletzt bearbeitet: 21. Apr. 2021
    xFamoussZ, most94, Pocky und 17 anderen gefällt das.
  2. Tanuki
    Tanuki

    Uploader Otaku Experte

    Registriert seit:
    7. Juli 2016
    Beiträge:
    88
    Zustimmungen:
    18.692
    Episode 2 hinzugefügt
     
  3. Tanuki
    Tanuki

    Uploader Otaku Experte

    Registriert seit:
    7. Juli 2016
    Beiträge:
    88
    Zustimmungen:
    18.692
    Episode 3 hinzugefügt
     

Diese Seite empfehlen