1. Die erweiterte Suche funktioniert wieder. Die LiveSearch wird gegen Ende der Woche wieder funktionieren.

Wir verwenden Cookies, um deinen Aufenthalt auf Animes.so möglichst angenehm gestalten zu können. Mehr erfahren

Land of the Lustrous | Houseki no Kuni [Laufend][Jap-Dub][Ger-Sub][1080p][BluRay] - Mogelpackung

Dieses Thema im Forum "Serien (GerSub)" wurde erstellt von Hausmittel, 21. Nov. 2018.

  1. Hausmittel

    Hausmittel Freigeschalteter Otaku Otaku Novize

    Registriert seit:
    19. Juli 2013
    Beiträge:
    36
    Zustimmungen:
    150

    Houseki no Kuni (2017)
    宝石の国 (2017)
    Land of the Lustrous


    [​IMG]


    Kurzbeschreibung:

    Episodenanzahl: 09/12
    Größe pro Folge: ~894 MB
    Spieldauer: 24min
    Sprache: Japanisch
    Untertitel: Deutsch
    Genre: Drama, Action, Alltagsleben, Fantasy
    Jahr: 2017
    Auflösung: 1080p (16:9)
    Format: MKV
    Videocodec: H.264 (AVC)
    Audiocodec: AAC
    Releasegruppe: Mogelpackung
    Hoster: Share-Online / Uploaded
    Code:
    General
    Format                         : Matroska
    Format version                 : Version 4 / Version 2
    File size                      : 894 MiB
    Duration                       : 24 min 2 s
    Overall bit rate               : 5 203 kb/s
    Encoded date                   : UTC 2018-11-21 20:19:26
    Writing application            : mkvmerge v15.0.0 ('Duel with the Devil') 64-bit
    Writing library                : libebml v1.3.5 + libmatroska v1.4.5
    Writing frontend               : StaxRip v1.7.0.0
    
    Video
    ID                             : 1
    Format                         : AVC
    Format/Info                    : Advanced Video Codec
    Format profile                 : High@L4.1
    Format settings, CABAC         : Yes
    Format settings, RefFrames     : 4 frames
    Codec ID                       : V_MPEG4/ISO/AVC
    Duration                       : 24 min 2 s
    Bit rate                       : 4 818 kb/s
    Width                          : 1 920 pixels
    Height                         : 1 080 pixels
    Display aspect ratio           : 16:9
    Frame rate mode                : Constant
    Frame rate                     : 23.976 (24000/1001) FPS
    Color space                    : YUV
    Chroma subsampling             : 4:2:0
    Bit depth                      : 8 bits
    Scan type                      : Progressive
    Bits/(Pixel*Frame)             : 0.097
    Stream size                    : 828 MiB (93%)
    Writing library                : x264 core 155 r2901 7d0ff22
    Encoding settings              : cabac=1 / ref=4 / deblock=1:1:1 / analyse=0x3:0x113 / me=hex / subme=7 / psy=1 / psy_rd=0.40:0.00 / mixed_ref=1 / me_range=16 / chroma_me=1 / trellis=1 / 8x8dct=1 / cqm=0 / deadzone=21,11 / fast_pskip=1 / chroma_qp_offset=-2 / threads=18 / lookahead_threads=3 / sliced_threads=0 / nr=0 / decimate=1 / interlaced=0 / bluray_compat=0 / constrained_intra=0 / bframes=5 / b_pyramid=2 / b_adapt=1 / b_bias=0 / direct=1 / weightb=1 / open_gop=0 / weightp=2 / keyint=240 / keyint_min=24 / scenecut=40 / intra_refresh=0 / rc_lookahead=30 / rc=crf / mbtree=1 / crf=19.0 / qcomp=0.60 / qpmin=0 / qpmax=69 / qpstep=4 / vbv_maxrate=62500 / vbv_bufsize=78125 / crf_max=0.0 / nal_hrd=none / filler=0 / ip_ratio=1.40 / aq=1:0.60
    Default                        : Yes
    Forced                         : No
    Color range                    : Limited
    Color primaries                : BT.709
    Transfer characteristics       : BT.709
    Matrix coefficients            : BT.709
    
    Audio
    ID                             : 2
    Format                         : AAC
    Format/Info                    : Advanced Audio Codec
    Format profile                 : LC
    Codec ID                       : A_AAC
    Duration                       : 24 min 2 s
    Bit rate                       : 384 kb/s
    Channel(s)                     : 2 channels
    Channel positions              : Front: L R
    Sampling rate                  : 48.0 kHz
    Frame rate                     : 46.875 FPS (1024 SPF)
    Compression mode               : Lossy
    Delay relative to video        : 9 ms
    Stream size                    : 65.7 MiB (7%)
    Language                       : Japanese
    Default                        : No
    Forced                         : No
    

    Status: [​IMG]
    Geschützter Bereich
    Registriere dich oder logge dich ein, um den Inhalt sehen zu können
     
    Zuletzt bearbeitet: 13. Jan. 2019
    Seralin, Usumaina, kutschi und 8 anderen gefällt das.
  2. Hausmittel

    Hausmittel Freigeschalteter Otaku Otaku Novize

    Registriert seit:
    19. Juli 2013
    Beiträge:
    36
    Zustimmungen:
    150
    +Episode 09
     
1!-- -->