• Wie Du sicherlich schon gesehen hast, hat sich Animes.so gewaltig verändert. Klicke hier um mehr Informationen darüber zu erhalten.

Lucky Star [Laufend][Ger-Jap-Dub][Ger-Sub][720p|1080p][DTS-HD|E-AC-3][8bits|10bits][x264|x265|AV1][BluRay] - AO

Kleinmike

Premium Spender
Premium
Uploader
Otaku König
Beiträge
179
Punkte Reaktionen
2.155
Punkte
93
Lucky Star
らき☆すた | Lucky Star

3906.webp


Beschreibung:
»Lucky Star« zeigt den Alltag der vier Oberschülerinnen Konata, Kagami, Tsukasa und Miyuki sowie deren Freunde und Familie. In ihren Erlebnissen und Gesprächen über Gott und die Welt werden die diversen Kuriositäten der japanischen Kultur aufgezeigt. Besonders die Subkultur der Otakus wird hier beleuchtet, vertreten durch Konata, die an wenig anderem interessiert ist und deren Schulleistungen unter ihrem exzessiven Anime- und Videospielkonsum leiden, was von Kagami laufend mit sarkastischen Sprüchen kommentiert wird.

»Lucky Star« bietet herrlich sinnentleerte humorvolle Gespräche über Themen, deren Unterhaltungswert wohl vorher niemand vermutet hätte. Gleichzeitig stellt es eine der gelungensten Parodien auf die japanische Otaku-Subkultur dar.
Quelle: anisearch

Folgen 06/24
Größe: 607MB, 1432MB, 1465MB, 1482MB
Sprache: Japanisch | Deutsch
Untertitel: Deutsch
Jahr: 2022
Genres: Komödie, Alltagsleben
Auflösung: 1920x1080
Format: MKV
Videocodec: H264 (AVC), H265 (HVEC), AV1 (AOM)
Farbtiefe: 8bit | 10bit
Audiocodec: DTS-HD | EAC3
Releaser: Anime Otakus
Publisher: AniMoon Publishing
Hoster: DDownload | Rapdigator

Mediainfo:
Code:
Format                                   : Matroska
Format version                           : Version 4
File size                                : 599 MiB
Duration                                 : 23 min 40 s
Overall bit rate                         : 3 537 kb/s
Encoded date                             : UTC 2022-06-19 00:57:44
Writing application                      : mkvmerge v68.0.0 ('The Curtain') 64-bit
Writing library                          : libebml v1.4.2 + libmatroska v1.6.4
Release by                               : Anime Otakus
Version                                  : 1.2

Video
ID                                       : 1
Format                                   : AVC
Format/Info                              : Advanced Video Codec
Format profile                           : [email protected]
Format settings                          : CABAC / 8 Ref Frames
Format settings, CABAC                   : Yes
Format settings, Reference frames        : 8 frames
Codec ID                                 : V_MPEG4/ISO/AVC
Duration                                 : 23 min 40 s
Bit rate                                 : 2 187 kb/s
Width                                    : 1 280 pixels
Height                                   : 720 pixels
Display aspect ratio                     : 16:9
Frame rate mode                          : Constant
Frame rate                               : 23.976 (24000/1001) FPS
Color space                              : YUV
Chroma subsampling                       : 4:2:0
Bit depth                                : 8 bits
Scan type                                : Progressive
Bits/(Pixel*Frame)                       : 0.099
Stream size                              : 370 MiB (62%)
Language                                 : English
Default                                  : No
Forced                                   : No
Color range                              : Limited
Color primaries                          : BT.709
Transfer characteristics                 : BT.709
Matrix coefficients                      : BT.709

Audio #1
ID                                       : 3
Format                                   : E-AC-3
Format/Info                              : Enhanced AC-3
Commercial name                          : Dolby Digital Plus
Codec ID                                 : A_EAC3
Duration                                 : 23 min 40 s
Bit rate mode                            : Constant
Bit rate                                 : 640 kb/s
Channel(s)                               : 2 channels
Channel layout                           : L R
Sampling rate                            : 48.0 kHz
Frame rate                               : 31.250 FPS (1536 SPF)
Bit depth                                : 32 bits
Compression mode                         : Lossy
Delay relative to video                  : -5 ms
Stream size                              : 108 MiB (18%)
Title                                    : Stereo
Language                                 : German
Service kind                             : Complete Main
Default                                  : Yes
Forced                                   : No

Audio #2
ID                                       : 4
Format                                   : E-AC-3
Format/Info                              : Enhanced AC-3
Commercial name                          : Dolby Digital Plus
Codec ID                                 : A_EAC3
Duration                                 : 23 min 40 s
Bit rate mode                            : Constant
Bit rate                                 : 640 kb/s
Channel(s)                               : 2 channels
Channel layout                           : L R
Sampling rate                            : 48.0 kHz
Frame rate                               : 31.250 FPS (1536 SPF)
Bit depth                                : 32 bits
Compression mode                         : Lossy
Delay relative to video                  : -5 ms
Stream size                              : 108 MiB (18%)
Title                                    : Stereo
Language                                 : Japanese
Service kind                             : Complete Main
Default                                  : No
Forced                                   : No

Text
ID                                       : 2
Format                                   : PGS
Muxing mode                              : zlib
Codec ID                                 : S_HDMV/PGS
Codec ID/Info                            : Picture based subtitle format used on BDs/HD-DVDs
Title                                    : German Full
Language                                 : German
Default                                  : No
Forced                                   : No

Menu
00:00:00.000                             : :Chapter 01
00:01:30.465                             : :Chapter 02
00:01:57.492                             : :Chapter 03
00:08:45.858                             : :Chapter 04
00:19:30.836                             : :Chapter 05
00:21:51.893                             : :Chapter 06
00:23:21.942                             : :Chapter 07
Code:
Format                                   : Matroska
Format version                           : Version 4
File size                                : 1.36 GiB
Duration                                 : 23 min 40 s
Overall bit rate mode                    : Variable
Overall bit rate                         : 8 241 kb/s
Encoded date                             : UTC 2022-06-19 00:57:30
Writing application                      : mkvmerge v68.0.0 ('The Curtain') 64-bit
Writing library                          : libebml v1.4.2 + libmatroska v1.6.4
Release by                               : Anime Otakus
Version                                  : 1.2

Video
ID                                       : 1
Format                                   : AVC
Format/Info                              : Advanced Video Codec
Format profile                           : [email protected]
Format settings                          : CABAC / 12 Ref Frames
Format settings, CABAC                   : Yes
Format settings, Reference frames        : 12 frames
Codec ID                                 : V_MPEG4/ISO/AVC
Duration                                 : 23 min 40 s
Width                                    : 1 920 pixels
Height                                   : 1 080 pixels
Display aspect ratio                     : 16:9
Frame rate mode                          : Constant
Frame rate                               : 23.976 (24000/1001) FPS
Color space                              : YUV
Chroma subsampling                       : 4:2:0
Bit depth                                : 8 bits
Scan type                                : Progressive
Language                                 : English
Default                                  : No
Forced                                   : No
Color range                              : Limited
Color primaries                          : BT.709
Transfer characteristics                 : BT.709
Matrix coefficients                      : BT.709

Audio #1
ID                                       : 3
Format                                   : DTS XLL
Format/Info                              : Digital Theater Systems
Commercial name                          : DTS-HD Master Audio
Codec ID                                 : A_DTS
Duration                                 : 23 min 40 s
Bit rate mode                            : Variable
Channel(s)                               : 2 channels
Channel layout                           : L R
Sampling rate                            : 48.0 kHz
Frame rate                               : 93.750 FPS (512 SPF)
Bit depth                                : 16 bits
Compression mode                         : Lossless
Title                                    : Stereo
Language                                 : German
Default                                  : Yes
Forced                                   : No

Audio #2
ID                                       : 4
Format                                   : DTS XLL
Format/Info                              : Digital Theater Systems
Commercial name                          : DTS-HD Master Audio
Codec ID                                 : A_DTS
Duration                                 : 23 min 40 s
Bit rate mode                            : Variable
Channel(s)                               : 2 channels
Channel layout                           : L R
Sampling rate                            : 48.0 kHz
Frame rate                               : 93.750 FPS (512 SPF)
Bit depth                                : 16 bits
Compression mode                         : Lossless
Title                                    : Stereo
Language                                 : Japanese
Default                                  : No
Forced                                   : No

Text
ID                                       : 2
Format                                   : PGS
Muxing mode                              : zlib
Codec ID                                 : S_HDMV/PGS
Codec ID/Info                            : Picture based subtitle format used on BDs/HD-DVDs
Title                                    : German Full
Language                                 : German
Default                                  : No
Forced                                   : No

Menu
00:00:00.000                             : :Chapter 01
00:01:30.465                             : :Chapter 02
00:01:57.492                             : :Chapter 03
00:08:45.858                             : :Chapter 04
00:19:30.836                             : :Chapter 05
00:21:51.893                             : :Chapter 06
00:23:21.942                             : :Chapter 07
Code:
Format                                   : Matroska
Format version                           : Version 4
File size                                : 1.41 GiB
Duration                                 : 23 min 40 s
Overall bit rate mode                    : Variable
Overall bit rate                         : 8 546 kb/s
Encoded date                             : UTC 2022-06-19 00:57:37
Writing application                      : mkvmerge v68.0.0 ('The Curtain') 64-bit
Writing library                          : libebml v1.4.2 + libmatroska v1.6.4
Release by                               : Anime Otakus
Version                                  : 1.2

Video
ID                                       : 1
Format                                   : HEVC
Format/Info                              : High Efficiency Video Coding
Format profile                           : [email protected]@Main
Codec ID                                 : V_MPEGH/ISO/HEVC
Duration                                 : 23 min 40 s
Width                                    : 1 920 pixels
Height                                   : 1 080 pixels
Display aspect ratio                     : 16:9
Frame rate mode                          : Constant
Frame rate                               : 23.976 (24000/1001) FPS
Color space                              : YUV
Chroma subsampling                       : 4:2:0 (Type 0)
Bit depth                                : 8 bits
Language                                 : English
Default                                  : No
Forced                                   : No
Color range                              : Limited
Color primaries                          : BT.709
Transfer characteristics                 : BT.709
Matrix coefficients                      : BT.709

Audio #1
ID                                       : 3
Format                                   : DTS XLL
Format/Info                              : Digital Theater Systems
Commercial name                          : DTS-HD Master Audio
Codec ID                                 : A_DTS
Duration                                 : 23 min 40 s
Bit rate mode                            : Variable
Channel(s)                               : 2 channels
Channel layout                           : L R
Sampling rate                            : 48.0 kHz
Frame rate                               : 93.750 FPS (512 SPF)
Bit depth                                : 16 bits
Compression mode                         : Lossless
Title                                    : Stereo
Language                                 : German
Default                                  : Yes
Forced                                   : No

Audio #2
ID                                       : 4
Format                                   : DTS XLL
Format/Info                              : Digital Theater Systems
Commercial name                          : DTS-HD Master Audio
Codec ID                                 : A_DTS
Duration                                 : 23 min 40 s
Bit rate mode                            : Variable
Channel(s)                               : 2 channels
Channel layout                           : L R
Sampling rate                            : 48.0 kHz
Frame rate                               : 93.750 FPS (512 SPF)
Bit depth                                : 16 bits
Compression mode                         : Lossless
Title                                    : Stereo
Language                                 : Japanese
Default                                  : No
Forced                                   : No

Text
ID                                       : 2
Format                                   : PGS
Muxing mode                              : zlib
Codec ID                                 : S_HDMV/PGS
Codec ID/Info                            : Picture based subtitle format used on BDs/HD-DVDs
Title                                    : German Full
Language                                 : German
Default                                  : No
Forced                                   : No

Menu
00:00:00.000                             : :Chapter 01
00:01:30.465                             : :Chapter 02
00:01:57.492                             : :Chapter 03
00:08:45.858                             : :Chapter 04
00:19:30.836                             : :Chapter 05
00:21:51.893                             : :Chapter 06
00:23:21.942                             : :Chapter 07
Code:
Format                                   : Matroska
Format version                           : Version 4
File size                                : 1.42 GiB
Duration                                 : 23 min 40 s
Overall bit rate mode                    : Variable
Overall bit rate                         : 8 607 kb/s
Encoded date                             : UTC 2022-06-19 14:21:36
Writing application                      : mkvmerge v68.0.0 ('The Curtain') 64-bit
Writing library                          : libebml v1.4.2 + libmatroska v1.6.4
Released by                              : Anime Otakus
Version                                  : 1.1

Video
ID                                       : 1
Format                                   : AV1
Format/Info                              : AOMedia Video 1
Format profile                           : [email protected]
Codec ID                                 : V_AV1
Duration                                 : 23 min 40 s
Bit rate                                 : 5 443 kb/s
Width                                    : 1 920 pixels
Height                                   : 1 080 pixels
Display aspect ratio                     : 16:9
Frame rate mode                          : Constant
Frame rate                               : 23.976 (24000/1001) FPS
Color space                              : YUV
Chroma subsampling                       : 4:2:0
Bit depth                                : 10 bits
Bits/(Pixel*Frame)                       : 0.109
Stream size                              : 921 MiB (63%)
Default                                  : Yes
Forced                                   : No
Color range                              : Limited
Color primaries                          : BT.709
Transfer characteristics                 : BT.709
Matrix coefficients                      : BT.709

Audio #1
ID                                       : 2
Format                                   : DTS XLL
Format/Info                              : Digital Theater Systems
Commercial name                          : DTS-HD Master Audio
Codec ID                                 : A_DTS
Duration                                 : 23 min 39 s
Bit rate mode                            : Variable
Bit rate                                 : 1 568 kb/s
Channel(s)                               : 2 channels
Channel layout                           : L R
Sampling rate                            : 48.0 kHz
Frame rate                               : 93.750 FPS (512 SPF)
Bit depth                                : 16 bits
Compression mode                         : Lossless
Stream size                              : 265 MiB (18%)
Title                                    : German Full
Language                                 : German
Default                                  : Yes
Forced                                   : No

Audio #2
ID                                       : 3
Format                                   : DTS XLL
Format/Info                              : Digital Theater Systems
Commercial name                          : DTS-HD Master Audio
Codec ID                                 : A_DTS
Duration                                 : 23 min 39 s
Bit rate mode                            : Variable
Bit rate                                 : 1 570 kb/s
Channel(s)                               : 2 channels
Channel layout                           : L R
Sampling rate                            : 48.0 kHz
Frame rate                               : 93.750 FPS (512 SPF)
Bit depth                                : 16 bits
Compression mode                         : Lossless
Stream size                              : 266 MiB (18%)
Language                                 : Japanese
Default                                  : No
Forced                                   : No

Text
ID                                       : 4
Format                                   : PGS
Muxing mode                              : zlib
Codec ID                                 : S_HDMV/PGS
Codec ID/Info                            : Picture based subtitle format used on BDs/HD-DVDs
Duration                                 : 23 min 38 s
Bit rate                                 : 64.1 kb/s
Count of elements                        : 928
Stream size                              : 10.8 MiB (1%)
Language                                 : German
Default                                  : No
Forced                                   : No

Menu #1
00:00:00.000                             : 00:00:00.000
00:01:30.465                             : 00:01:30.465
00:01:57.492                             : 00:01:57.492
00:08:45.858                             : 00:08:45.858
00:19:30.836                             : 00:19:30.836
00:21:51.893                             : 00:21:51.893
00:23:21.942                             : 00:23:21.942

Menu #2
00:00:00.000                             : 00:00:00.000
00:01:30.465                             : 00:01:30.465
00:01:57.492                             : 00:01:57.492
00:08:45.858                             : 00:08:45.858
00:19:30.836                             : 00:19:30.836
00:21:51.893                             : 00:21:51.893
00:23:21.942                             : 00:23:21.942
Status:
Rapdigator:
720p EAC3:
4E2642A828.png

1080p DTS-HD:
0BCEF2281B.png

x265 1080p DTS-HD:
E1FBB05EBB.png

AV1 1080p DTS-HD:
AE2281083F.png


DDownload:
720p EAC3:
8AA1D8C2F4.png

1080p DTS-HD:
ED71FB0551.png

x265 1080p DTS-HD:
70CA792384.png

AV1 1080p DTS-HD:
AE2281083F.png


To view the content, you need to Sign In or Register.
 
Oben