Wir verwenden Cookies, um deinen Aufenthalt auf Animes.so möglichst angenehm gestalten zu können. Mehr erfahren

Mars Red [Laufend][Jap-Dub][Ger-Sub][720p|1080p][WebRip] - Wakanim

Dieses Thema im Forum "Anime Serien (Deutsche Untertitel)" wurde erstellt von Azugo, 29. März 2021.

  1. Azugo
    Azugo

    H͓̽u͓̽g͓̽o͓̽ ͓̽&͓̽ ͓̽A͓̽z͓̽u͓̽r͓̽a͓̽ Seelenverkäufer Uploader

    Registriert seit:
    25. März 2020
    Beiträge:
    390
    Zustimmungen:
    4.230

    Mars Red



    [​IMG]


    [​IMG]

    [​IMG]

    Spieldauer: ~24min
    Genre: Action, Fantasy, Sci-Fi, Vampir
    Jahr: 2021
    Sprache: Japanisch
    Untertitle: Deutsch
    Größe pro Folge: ~500mb, ~900mb
    Episodenanzahl: 5/12
    Format: MKV
    Auflösung: 720p (16:9), 1080p (16:9)
    Videocodec: H264 (AVC)
    Audiocodec: AAC
    Releasegruppe: Hugo
    Hoster: ddownload, uploaded


    [​IMG]
    Code:
    Format                                   : Matroska
    Format version                           : Version 4
    File size                                : 548 MiB
    Duration                                 : 23 min 48 s
    Overall bit rate mode                    : Variable
    Overall bit rate                         : 3 217 kb/s
    Encoded date                             : UTC 2021-03-29 21:20:43
    Writing application                      : mkvmerge v55.0.0 ('Waiting For Space') 64-bit
    Writing library                          : libebml v1.4.2 + libmatroska v1.6.4
    
    Video
    ID                                       : 1
    Format                                   : AVC
    Format/Info                              : Advanced Video Codec
    Format profile                           : High@L4
    Format settings                          : CABAC / 2 Ref Frames
    Format settings, CABAC                   : Yes
    Format settings, Reference frames        : 2 frames
    Codec ID                                 : V_MPEG4/ISO/AVC
    Duration                                 : 23 min 47 s
    Bit rate mode                            : Variable
    Bit rate                                 : 3 022 kb/s
    Maximum bit rate                         : 16.0 Mb/s
    Width                                    : 1 280 pixels
    Height                                   : 720 pixels
    Display aspect ratio                     : 16:9
    Frame rate mode                          : Constant
    Frame rate                               : 24.000 FPS
    Color space                              : YUV
    Chroma subsampling                       : 4:2:0
    Bit depth                                : 8 bits
    Scan type                                : Progressive
    Bits/(Pixel*Frame)                       : 0.137
    Stream size                              : 514 MiB (94%)
    Default                                  : Yes
    Forced                                   : No
    Color range                              : Limited
    
    Audio
    ID                                       : 2
    Format                                   : AAC LC
    Format/Info                              : Advanced Audio Codec Low Complexity
    Codec ID                                 : A_AAC-2
    Duration                                 : 23 min 48 s
    Bit rate                                 : 192 kb/s
    Channel(s)                               : 2 channels
    Channel layout                           : L R
    Sampling rate                            : 48.0 kHz
    Frame rate                               : 46.875 FPS (1024 SPF)
    Compression mode                         : Lossy
    Stream size                              : 32.8 MiB (6%)
    Default                                  : Yes
    Forced                                   : No
    
    
    Code:
    Format                                   : Matroska
    Format version                           : Version 4
    File size                                : 882 MiB
    Duration                                 : 23 min 48 s
    Overall bit rate                         : 5 179 kb/s
    Encoded date                             : UTC 2021-03-29 21:20:41
    Writing application                      : mkvmerge v55.0.0 ('Waiting For Space') 64-bit
    Writing library                          : libebml v1.4.2 + libmatroska v1.6.4
    
    Video
    ID                                       : 1
    Format                                   : AVC
    Format/Info                              : Advanced Video Codec
    Format profile                           : High@L4
    Format settings                          : CABAC / 1 Ref Frames
    Format settings, CABAC                   : Yes
    Format settings, Reference frames        : 1 frame
    Codec ID                                 : V_MPEG4/ISO/AVC
    Duration                                 : 23 min 47 s
    Bit rate                                 : 4 985 kb/s
    Width                                    : 1 920 pixels
    Height                                   : 1 080 pixels
    Display aspect ratio                     : 16:9
    Frame rate mode                          : Constant
    Frame rate                               : 24.000 FPS
    Color space                              : YUV
    Chroma subsampling                       : 4:2:0
    Bit depth                                : 8 bits
    Scan type                                : Progressive
    Bits/(Pixel*Frame)                       : 0.100
    Stream size                              : 848 MiB (96%)
    Default                                  : Yes
    Forced                                   : No
    
    Audio
    ID                                       : 2
    Format                                   : AAC LC
    Format/Info                              : Advanced Audio Codec Low Complexity
    Codec ID                                 : A_AAC-2
    Duration                                 : 23 min 48 s
    Bit rate                                 : 192 kb/s
    Channel(s)                               : 2 channels
    Channel layout                           : L R
    Sampling rate                            : 48.0 kHz
    Frame rate                               : 46.875 FPS (1024 SPF)
    Compression mode                         : Lossy
    Stream size                              : 32.8 MiB (4%)
    Default                                  : Yes
    Forced                                   : No
    
    



    Status: 720p [​IMG] 1080p [​IMG]
    Geschützter Bereich
    Registriere dich oder logge dich ein, um den Inhalt sehen zu können
     
    Zuletzt bearbeitet: 3. Mai 2021 um 21:26 Uhr
    Nepadeus, hapohunter, SatoshiKon und 2 anderen gefällt das.
  2. Azugo
    Azugo

    H͓̽u͓̽g͓̽o͓̽ ͓̽&͓̽ ͓̽A͓̽z͓̽u͓̽r͓̽a͓̽ Seelenverkäufer Uploader

    Registriert seit:
    25. März 2020
    Beiträge:
    390
    Zustimmungen:
    4.230
    (っ◔◡◔)っ ♥ Episode 5 online. Viel Spaß ♥
     

Diese Seite empfehlen