1. Aktuell funktioniert unser Image Proxy nicht mehr ordnungsgemäß, sodass keine Bilder mehr angezeigt werden. Wir kümmern uns darum!

Wir verwenden Cookies, um deinen Aufenthalt auf Animes.so möglichst angenehm gestalten zu können. Mehr erfahren

Mashiro no Oto | Those Snow White Notes [Laufend][JapDub][GerEngSub][720p|1080p][Web-DL] - Crunchyroll

Dieses Thema im Forum "Anime Serien (Deutsche Untertitel)" wurde erstellt von Tanuki, 2. Apr. 2021.

  1. Tanuki
    Tanuki

    Uploader Otaku Experte

    Registriert seit:
    7. Juli 2016
    Beiträge:
    88
    Zustimmungen:
    18.692
    Mashiro no Oto
    Those Snow White Notes
    Pure Sound

    [​IMG]
    [​IMG]

    Das Coming-of-Age-Drama folgt einem Mädchen, das auf der Straße einem Jungen mit einem ungewöhnlichen Instrumentenkoffer begegnet. Diese zufällige Begegnung zwischen einem Idol, das hoffnungsvoll singt, und einem Spieler der traditionellen japanischen dreisaitigen Shamisen führt beide auf eine Reise zur Entdeckung ihrer bildlichen und wörtlichen Stimmen.

    Folgen: 4/12
    Größe pro Folge: ~721 MB/~1421 MB
    Folgendauer: ~24 Min
    Releaser: Tanuki
    Art: Lizenzrelease
    Sprache: Japanisch
    Untertitel: Deutsch, Englisch
    Jahr: 2021
    Genres: Alltagsleben, Drama, Komödie, Romanze
    Auflösung: 1280x720/1920x1080
    Format: MKV
    Quelle: Web-DL
    Videocodec: x264
    Farbtiefe: 8Bit
    Audiocodec: AAC
    Publisher: Crunchyroll
    Hoster: Uploaded, ddownload

    [​IMG]
    Code:
    General Unique ID : 108163149139253135017765342287455595123 (0x515F76FBDD5FE5755E8E836740642A73) Complete name : Those.Snow.White.Notes.E01.GerEngSub.AAC.720p.Web-DL.x264-Tanuki.mkv Format : Matroska Format version : Version 4 File size : 721 MiB Duration : 24 min 27 s Overall bit rate : 4 124 kb/s Encoded date : UTC 2021-04-02 19:10:15 Writing application : mkvmerge v19.0.0 ('Brave Captain') 64-bit Writing library : libebml v1.3.5 + libmatroska v1.4.8 Attachments : font.ttf Video ID : 1 Format : AVC Format/Info : Advanced Video Codec Format profile : High@L4 Format settings : CABAC / 6 Ref Frames Format settings, CABAC : Yes Format settings, Reference frames : 6 frames Format settings, GOP : N=1 Codec ID : V_MPEG4/ISO/AVC Duration : 24 min 27 s Bit rate : 4 000 kb/s Width : 1 280 pixels Height : 720 pixels Display aspect ratio : 16:9 Frame rate mode : Constant Frame rate : 23.976 (24000/1001) FPS Color space : YUV Chroma subsampling : 4:2:0 Bit depth : 8 bits Scan type : Progressive Bits/(Pixel*Frame) : 0.181 Stream size : 698 MiB (97%) Writing library : x264 core 142 Encoding settings : cabac=1 / ref=6 / deblock=1:1:1 / analyse=0x3:0x113 / me=umh / subme=8 / psy=1 / psy_rd=0.40:0.00 / mixed_ref=1 / me_range=16 / chroma_me=1 / trellis=1 / 8x8dct=1 / cqm=0 / deadzone=21,11 / fast_pskip=1 / chroma_qp_offset=-2 / threads=10 / lookahead_threads=1 / sliced_threads=0 / nr=0 / decimate=1 / interlaced=0 / bluray_compat=0 / constrained_intra=0 / bframes=0 / weightp=2 / keyint=96 / keyint_min=48 / scenecut=40 / intra_refresh=0 / rc_lookahead=48 / rc=2pass / mbtree=1 / bitrate=4000 / ratetol=1.0 / qcomp=0.60 / qpmin=0 / qpmax=69 / qpstep=4 / cplxblur=20.0 / qblur=0.5 / vbv_maxrate=6000 / vbv_bufsize=9000 / nal_hrd=none / filler=0 / ip_ratio=1.40 / aq=1:0.60 Default : Yes Forced : No Audio ID : 2 Format : AAC LC Format/Info : Advanced Audio Codec Low Complexity Codec ID : A_AAC-2 Duration : 24 min 27 s Bit rate : 128 kb/s Channel(s) : 2 channels Channel layout : L R Sampling rate : 44.1 kHz Frame rate : 43.066 FPS (1024 SPF) Compression mode : Lossy Stream size : 22.4 MiB (3%) Language : Japanese Default : Yes Forced : No Text #1 ID : 3 Format : ASS Codec ID : S_TEXT/ASS Codec ID/Info : Advanced Sub Station Alpha Duration : 22 min 4 s Bit rate : 128 b/s Count of elements : 332 Compression mode : Lossless Stream size : 20.8 KiB (0%) Language : German Default : Yes Forced : No Text #2 ID : 4 Format : ASS Codec ID : S_TEXT/ASS Codec ID/Info : Advanced Sub Station Alpha Duration : 22 min 4 s Bit rate : 177 b/s Count of elements : 398 Compression mode : Lossless Stream size : 28.7 KiB (0%) Language : English Default : No Forced : No ​
    Code:
    General Unique ID : 106533062948691319108194088766527459845 (0x502585879428BDF63B503631AA535205) Complete name : Those.Snow.White.Notes.E01.GerEngSub.AAC.1080p.Web-DL.x264-Tanuki.mkv Format : Matroska Format version : Version 4 File size : 1.39 GiB Duration : 24 min 27 s Overall bit rate : 8 131 kb/s Encoded date : UTC 2021-04-02 19:10:12 Writing application : mkvmerge v19.0.0 ('Brave Captain') 64-bit Writing library : libebml v1.3.5 + libmatroska v1.4.8 Attachments : font.ttf Video ID : 1 Format : AVC Format/Info : Advanced Video Codec Format profile : High@L4 Format settings : CABAC / 4 Ref Frames Format settings, CABAC : Yes Format settings, Reference frames : 4 frames Codec ID : V_MPEG4/ISO/AVC Duration : 24 min 27 s Bit rate : 8 000 kb/s Width : 1 920 pixels Height : 1 080 pixels Display aspect ratio : 16:9 Frame rate mode : Constant Frame rate : 23.976 (24000/1001) FPS Color space : YUV Chroma subsampling : 4:2:0 Bit depth : 8 bits Scan type : Progressive Bits/(Pixel*Frame) : 0.161 Stream size : 1.37 GiB (98%) Writing library : x264 core 142 Encoding settings : cabac=1 / ref=4 / deblock=1:1:1 / analyse=0x3:0x113 / me=umh / subme=8 / psy=1 / psy_rd=0.40:0.00 / mixed_ref=1 / me_range=16 / chroma_me=1 / trellis=1 / 8x8dct=1 / cqm=0 / deadzone=21,11 / fast_pskip=1 / chroma_qp_offset=-2 / threads=12 / lookahead_threads=2 / sliced_threads=0 / nr=0 / decimate=1 / interlaced=0 / bluray_compat=0 / constrained_intra=0 / bframes=0 / weightp=2 / keyint=96 / keyint_min=48 / scenecut=40 / intra_refresh=0 / rc_lookahead=48 / rc=2pass / mbtree=1 / bitrate=8000 / ratetol=1.0 / qcomp=0.60 / qpmin=0 / qpmax=69 / qpstep=4 / cplxblur=20.0 / qblur=0.5 / vbv_maxrate=12000 / vbv_bufsize=18000 / nal_hrd=none / filler=0 / ip_ratio=1.40 / aq=1:0.60 Default : Yes Forced : No Audio ID : 2 Format : AAC LC Format/Info : Advanced Audio Codec Low Complexity Codec ID : A_AAC-2 Duration : 24 min 27 s Bit rate : 128 kb/s Channel(s) : 2 channels Channel layout : L R Sampling rate : 44.1 kHz Frame rate : 43.066 FPS (1024 SPF) Compression mode : Lossy Stream size : 22.4 MiB (2%) Language : Japanese Default : Yes Forced : No Text #1 ID : 3 Format : ASS Codec ID : S_TEXT/ASS Codec ID/Info : Advanced Sub Station Alpha Duration : 22 min 4 s Bit rate : 128 b/s Count of elements : 332 Compression mode : Lossless Stream size : 20.8 KiB (0%) Language : German Default : Yes Forced : No Text #2 ID : 4 Format : ASS Codec ID : S_TEXT/ASS Codec ID/Info : Advanced Sub Station Alpha Duration : 22 min 4 s Bit rate : 177 b/s Count of elements : 398 Compression mode : Lossless Stream size : 28.7 KiB (0%) Language : English Default : No Forced : No ​

    720p:[​IMG]1080p:[​IMG]

    Geschützter Bereich
    Registriere dich oder logge dich ein, um den Inhalt sehen zu können
     
    Zuletzt bearbeitet: 23. Apr. 2021
    Natsuki und Kosuda-kun gefällt das.
  2. Tanuki
    Tanuki

    Uploader Otaku Experte

    Registriert seit:
    7. Juli 2016
    Beiträge:
    88
    Zustimmungen:
    18.692
    Episode 2 hinzugefügt.
     
  3. Tanuki
    Tanuki

    Uploader Otaku Experte

    Registriert seit:
    7. Juli 2016
    Beiträge:
    88
    Zustimmungen:
    18.692
    Episode 3 und 4 hinzugefügt
     

Diese Seite empfehlen