1. Aktuell funktioniert unser Image Proxy nicht mehr ordnungsgemäß, sodass keine Bilder mehr angezeigt werden. Wir kümmern uns darum!

Wir verwenden Cookies, um deinen Aufenthalt auf Animes.so möglichst angenehm gestalten zu können. Mehr erfahren

Megalobox S02 | Megalobox 2: Nomad [Laufend][JapDub][GerSub][720p|1080p][WebRip] - Wakanim

Dieses Thema im Forum "Anime Serien (Deutsche Untertitel)" wurde erstellt von Tanuki, 4. Apr. 2021.

  1. Tanuki
    Tanuki

    Uploader Otaku Experte

    Registriert seit:
    7. Juli 2016
    Beiträge:
    88
    Zustimmungen:
    18.692
    Nomad: Megalo Box 2
    Megalobox S02

    [​IMG]
    [​IMG]

    Die Anime-Hommage an Ashita no Joe ist wieder da! Sieben Jahre nach seinem Sieg beim großen Wettkampf im Megaloboxen – einem Boxsport, bei dem jeder Schlag durch die Kraft von Maschinen um ein Vielfaches verstärkt wird – setzt „Gearless“ Joe seinen Titel aufs Spiel. Nur mit den eigenen Narben bewaffnet, nennt er sich von nun an „der Nomade“ … Blut, Metall und Schweiß begleiten ihn auf seinen Weg nach oben zum ultimativen Ruhm!
    Folgen: 3/12
    Größe pro Folge: ~363 MB/~1154 MB
    Folgendauer: ~24 Min
    Releaser: Tanuki
    Art: Lizenzrelease
    Sprache: Japanisch
    Untertitel: Deutsch
    Jahr: 2021
    Genres: Action, Drama, Fighting-Shounen, Sport
    Auflösung: 1280x720/1920x1080
    Format: MKV
    Quelle: WebRip
    Videocodec: x264
    Farbtiefe: 8Bit
    Audiocodec: AAC
    Publisher: Wakanim DE
    Hoster: Uploaded, ddownload

    [​IMG]
    Code:
    General Unique ID : 53382353262999201465641196232205413691 (0x282911384939CB8D833A122543302D3B) Complete name : Megalobox.S02E01.GerSub.720p.AAC.WebRip.x264-Tanuki.mkv Format : Matroska Format version : Version 4 File size : 364 MiB Duration : 24 min 0 s Overall bit rate : 2 120 kb/s Encoded date : UTC 2021-04-04 15:37:39 Writing application : mkvmerge v52.0.0 ('Secret For The Mad') 64-bit Writing library : libebml v1.4.1 + libmatroska v1.6.2 Attachments : font.ttf Video ID : 1 Format : AVC Format/Info : Advanced Video Codec Format profile : High@L3.1 Format settings : CABAC / 4 Ref Frames Format settings, CABAC : Yes Format settings, Reference frames : 4 frames Codec ID : V_MPEG4/ISO/AVC Duration : 24 min 0 s Bit rate : 1 802 kb/s Width : 1 280 pixels Height : 720 pixels Display aspect ratio : 16:9 Frame rate mode : Constant Frame rate : 23.976 (24000/1001) FPS Color space : YUV Chroma subsampling : 4:2:0 Bit depth : 8 bits Scan type : Progressive Bits/(Pixel*Frame) : 0.082 Stream size : 309 MiB (85%) Writing library : x264 core 155 r2901 7d0ff22 Encoding settings : cabac=1 / ref=2 / deblock=1:0:0 / analyse=0x3:0x113 / me=hex / subme=6 / psy=1 / psy_rd=1.00:0.00 / mixed_ref=1 / me_range=16 / chroma_me=1 / trellis=1 / 8x8dct=1 / cqm=0 / deadzone=21,11 / fast_pskip=1 / chroma_qp_offset=-2 / threads=12 / lookahead_threads=2 / sliced_threads=0 / nr=0 / decimate=1 / interlaced=0 / bluray_compat=0 / constrained_intra=0 / bframes=3 / b_pyramid=2 / b_adapt=1 / b_bias=0 / direct=1 / weightb=1 / open_gop=0 / weightp=1 / keyint=250 / keyint_min=23 / scenecut=40 / intra_refresh=0 / rc_lookahead=30 / rc=crf / mbtree=1 / crf=18.0 / qcomp=0.60 / qpmin=0 / qpmax=69 / qpstep=4 / ip_ratio=1.40 / aq=1:1.00 Default : Yes Forced : No Audio ID : 2 Format : AAC LC Format/Info : Advanced Audio Codec Low Complexity Codec ID : A_AAC-2 Duration : 24 min 0 s Bit rate : 315 kb/s Channel(s) : 2 channels Channel layout : L R Sampling rate : 48.0 kHz Frame rate : 46.875 FPS (1024 SPF) Compression mode : Lossy Delay relative to video : -21 ms Stream size : 54.0 MiB (15%) Default : Yes Forced : No Menu 00:00:00.000 : :Hauptteil 00:22:37.000 : :Ending 00:24:01.000 : :Abspann ​
    Code:
    General Unique ID : 265708675768373856724165580203996476293 (0xC7E5A127DE114EE6685610D99BDBF385) Complete name : Megalobox.S02E01.GerSub.1080p.AAC.WebRip.x264-Tanuki.mkv Format : Matroska Format version : Version 4 File size : 1.13 GiB Duration : 24 min 0 s Overall bit rate : 6 724 kb/s Encoded date : UTC 2021-04-04 15:40:45 Writing application : mkvmerge v52.0.0 ('Secret For The Mad') 64-bit Writing library : libebml v1.4.1 + libmatroska v1.6.2 Attachments : font.ttf Video ID : 1 Format : AVC Format/Info : Advanced Video Codec Format profile : High@L4 Format settings : CABAC / 4 Ref Frames Format settings, CABAC : Yes Format settings, Reference frames : 4 frames Codec ID : V_MPEG4/ISO/AVC Duration : 24 min 0 s Bit rate : 6 407 kb/s Width : 1 920 pixels Height : 1 080 pixels Display aspect ratio : 16:9 Frame rate mode : Constant Frame rate : 23.976 (24000/1001) FPS Color space : YUV Chroma subsampling : 4:2:0 Bit depth : 8 bits Scan type : Progressive Bits/(Pixel*Frame) : 0.129 Stream size : 1.07 GiB (95%) Writing library : x264 core 155 r2901 7d0ff22 Encoding settings : cabac=1 / ref=2 / deblock=1:0:0 / analyse=0x3:0x113 / me=hex / subme=6 / psy=1 / psy_rd=1.00:0.00 / mixed_ref=1 / me_range=16 / chroma_me=1 / trellis=1 / 8x8dct=1 / cqm=0 / deadzone=21,11 / fast_pskip=1 / chroma_qp_offset=-2 / threads=12 / lookahead_threads=2 / sliced_threads=0 / nr=0 / decimate=1 / interlaced=0 / bluray_compat=0 / constrained_intra=0 / bframes=3 / b_pyramid=2 / b_adapt=1 / b_bias=0 / direct=1 / weightb=1 / open_gop=0 / weightp=1 / keyint=250 / keyint_min=23 / scenecut=40 / intra_refresh=0 / rc_lookahead=30 / rc=crf / mbtree=1 / crf=16.0 / qcomp=0.60 / qpmin=0 / qpmax=69 / qpstep=4 / ip_ratio=1.40 / aq=1:1.00 Default : Yes Forced : No Audio ID : 2 Format : AAC LC Format/Info : Advanced Audio Codec Low Complexity Codec ID : A_AAC-2 Duration : 24 min 0 s Bit rate : 315 kb/s Channel(s) : 2 channels Channel layout : L R Sampling rate : 48.0 kHz Frame rate : 46.875 FPS (1024 SPF) Compression mode : Lossy Delay relative to video : -21 ms Stream size : 54.0 MiB (5%) Default : Yes Forced : No Menu 00:00:00.000 : :Hauptteil 00:22:37.000 : :Ending 00:24:01.000 : :Abspann ​

    720p:[​IMG]1080p:[​IMG]

    Geschützter Bereich
    Registriere dich oder logge dich ein, um den Inhalt sehen zu können
     
    Zuletzt bearbeitet: 18. Apr. 2021
    HoDeluxe, AnimeFanBoy und SatoshiKon gefällt das.
  2. Tanuki
    Tanuki

    Uploader Otaku Experte

    Registriert seit:
    7. Juli 2016
    Beiträge:
    88
    Zustimmungen:
    18.692
    Episode 2 hinzugefügt
     
  3. Tanuki
    Tanuki

    Uploader Otaku Experte

    Registriert seit:
    7. Juli 2016
    Beiträge:
    88
    Zustimmungen:
    18.692
    Episode 3 hinzugefügt
     

Diese Seite empfehlen