1. Die erweiterte Suche funktioniert wieder. Die LiveSearch wird gegen Ende der Woche wieder funktionieren.

Wir verwenden Cookies, um deinen Aufenthalt auf Animes.so möglichst angenehm gestalten zu können. Mehr erfahren

Meitantei Conan | Detektiv Conan E309-E342 [Laufend][Ger-Jap-Dub][480p][DVDRip] - Mr.Mew/Reghost/Fabre

Dieses Thema im Forum "Serien (GerDub)" wurde erstellt von Ta@, 20. Okt. 2018.

  1. Ta@

    Ta@ Erfahrener Otaku Otaku König

    Registriert seit:
    7. Juli 2016
    Beiträge:
    340
    Zustimmungen:
    11.619
    Meitantei Conan
    Detektiv Conan
    Detective Conan, Conan TV, DC

    [​IMG]
    [​IMG]

    Shin'ichi Kudou ist 17 Jahre alt und wird jetzt schon als "moderner Sherlock Holmes" bezeichnet. Nach einem Date mit seiner Freundin Ran Mouri kommt er einem illegalen Deal auf die Spur, vernachlässigt dabei aber seine Deckung und wird niedergeschlagen. Ihm wird ein Gift verabreicht, das ihn töten soll. Das Gift tötet ihn jedoch nicht, sondern verwandelt ihn in ein Kind. Mit seinem Problem wendet er sich an Hiroshi Agasa, einen durchgeknallten Professor, der in dieser Situation der einzige Mann ist, der ihm Glauben schenken würde. Von nun an nennt sich Shin'ichi selbst Edogawa Conan und versucht, sein früheres Leben fortzusetzen. Schnell muss er jedoch feststellen, dass das Leben als sechsjähriger Meisterdetektiv nicht so einfach ist - vor allem, wenn man der wahrscheinlich größten Verbrecherbande der Welt auf der Spur ist: Den Männern in Schwarz...

    In Deutschland wurden einige Detektiv Conan Einzelepisoden auf mehrere Episoden aufgeteilt. Daher entspricht die deutsche Episodenzählung nicht der japanischen.

    Folgen: 309-342/???
    Größe pro Folge: ~240 MB
    Folgendauer: ~24 Min
    Releaser: Mr.Mew/Reghost/Fabre/DragsterPS
    Art: Lizenzrelease
    Sprache: Deutsch, Japanisch
    Untertitel: -
    Jahr: 1996
    Genres: Abenteuer, Action, Drama, Komödie, Krimi, Mystery, Romanze
    Auflösung: 720x480
    Format: MKV
    Quelle: DVDRip
    Videocodec: x264
    Farbtiefe: 10Bit
    Audiocodec: AAC
    Publisher: ProSiebenMAXX
    Hoster: Share-Online

    [​IMG]
    Code:
    General Complete name : Detektiv Conan 309 [R2J 480p][Mr.Mew-Reghost-Fabre][5474A23C].mkv Format : Matroska Format version : Version 4 File size : 248 MiB Duration : 24 min 27 s Overall bit rate : 1 415 kb/s Encoded date : UTC 2018-10-20 15:26:54 Writing application : mkvmerge v25.0.0 ('Prog Noir') 64-bit Writing library : libebml v1.3.6 + libmatroska v1.4.9 Attachments : Ligurino.ttf / MyriadPro-Semibold.otf / verdanab.ttf / EddieBecker.ttf / Episodentitel.ttf Video ID : 1 Format : AVC Format/Info : Advanced Video Codec Format profile : High 10@L4 Format settings : CABAC / 16 Ref Frames Format settings, CABAC : Yes Format settings, RefFrames : 16 frames Codec ID : V_MPEG4/ISO/AVC Duration : 24 min 27 s Bit rate : 1 059 kb/s Width : 720 pixels Height : 480 pixels Display aspect ratio : 4:3 Frame rate mode : Constant Frame rate : 23.976 (24000/1001) FPS Color space : YUV Chroma subsampling : 4:2:0 Bit depth : 10 bits Scan type : Progressive Bits/(Pixel*Frame) : 0.128 Stream size : 185 MiB (75%) Title : [720x480/4:3@10bits] [CRF de 15] Writing library : x264 core 138 r2358 9e941d1 Encoding settings : cabac=1 / ref=16 / deblock=1:0:0 / analyse=0x3:0x133 / me=umh / subme=10 / psy=1 / psy_rd=1.00:0.00 / mixed_ref=1 / me_range=24 / chroma_me=1 / trellis=2 / 8x8dct=1 / cqm=0 / deadzone=21,11 / fast_pskip=1 / chroma_qp_offset=-2 / threads=6 / lookahead_threads=1 / sliced_threads=0 / nr=0 / decimate=1 / interlaced=0 / bluray_compat=0 / constrained_intra=0 / bframes=8 / b_pyramid=2 / b_adapt=2 / b_bias=0 / direct=3 / weightb=1 / open_gop=0 / weightp=2 / keyint=240 / keyint_min=23 / scenecut=40 / intra_refresh=0 / rc_lookahead=60 / rc=crf / mbtree=1 / crf=15.0 / qcomp=0.60 / qpmin=0 / qpmax=81 / qpstep=4 / ip_ratio=1.40 / aq=1:1.00 Language : Japanese Default : Yes Forced : No Audio #1 ID : 2 Format : AAC LC Format/Info : Advanced Audio Codec Low Complexity Codec ID : A_AAC-2 Duration : 24 min 27 s Bit rate : 159 kb/s Channel(s) : 2 channels Channel layout : L R Sampling rate : 48.0 kHz Frame rate : 46.875 FPS (1024 SPF) Compression mode : Lossy Delay relative to video : 20 ms Stream size : 27.7 MiB (11%) Language : German Default : Yes Forced : No Audio #2 ID : 3 Format : AC-3 Format/Info : Audio Coding 3 Commercial name : Dolby Digital Codec ID : A_AC3 Duration : 24 min 27 s Bit rate mode : Constant Bit rate : 192 kb/s Channel(s) : 2 channels Channel layout : L R Sampling rate : 48.0 kHz Frame rate : 31.250 FPS (1536 SPF) Bit depth : 16 bits Compression mode : Lossy Stream size : 33.6 MiB (14%) Title : Kuro no Soshiki to no Sesshoku (Koushou Hen) (黒の組織との接触(交渉編)) [日本語] Language : Japanese Service kind : Complete Main Default : No Forced : No Text ID : 4 Format : ASS Codec ID : S_TEXT/ASS Codec ID/Info : Advanced Sub Station Alpha Duration : 24 min 10 s Bit rate : 22 b/s Count of elements : 48 Compression mode : Lossless Stream size : 3.95 KiB (0%) Language : German Default : Yes Forced : No Menu 00:00:00.000 : en:Opening 00:01:42.000 : :Rückblende 00:03:45.331 : en:Hauptteil - A 00:10:52.831 : :Eyecatcher 00:10:56.655 : :Hauptteil - B 00:22:17.103 : en:Ending 00:23:47.095 : :Vorschau 00:24:17.121 : :Hinweis ​

    Anmerkung:
    Das deutsche Audio wurde auf die japanische DVD angepasst und das Opening/Ending + Episodentitel wurden übersetzt.
    Die Episodenanzahl orientiert sich an der japanischen Zählweise: Liste der Anime-Episoden | ConanWiki.org – Dein Detektiv Conan-Wiki

    Status:[​IMG]

    Geschützter Bereich
    Registriere dich oder logge dich ein, um den Inhalt sehen zu können
     
    Zuletzt bearbeitet: 6. Dez. 2018
    frankra, Jeycop, Dakatergi und 39 anderen gefällt das.
  2. Ta@

    Ta@ Erfahrener Otaku Otaku König

    Registriert seit:
    7. Juli 2016
    Beiträge:
    340
    Zustimmungen:
    11.619
    ~Folge 342 online~
    ~Folge 342 ist eine Doppelfolge~