1. Die erweiterte Suche funktioniert wieder. Die LiveSearch ist vorübergehend deaktiviert

Wir verwenden Cookies, um deinen Aufenthalt auf Animes.so möglichst angenehm gestalten zu können. Mehr erfahren

Meitantei Conan | Detektiv Conan [Laufend][Ger-Dub][720p][WebRip] - AoD

Dieses Thema im Forum "Serien (GerDub)" wurde erstellt von Fuuko, 23. Sep. 2018.

  1. Fuuko

    Fuuko Erfahrener Otaku Otaku König

    Registriert seit:
    19. Sep. 2018
    Beiträge:
    159
    Zustimmungen:
    5.740
    Meitantei Conan
    Detektiv Conan

    [​IMG]

    [​IMG]
    Shin'ichi Kudou ist 17 Jahre alt und wird jetzt schon als "moderner Sherlock Holmes" bezeichnet. Nach einem Date mit seiner Freundin Ran Mouri kommt er einem illegalen Deal auf die Spur, vernachlässigt dabei aber seine Deckung und wird niedergeschlagen. Ihm wird ein Gift verabreicht, das ihn töten soll. Das Gift tötet ihn jedoch nicht, sondern verwandelt ihn in ein Kind. Mit seinem Problem wendet er sich an Hiroshi Agasa, einen durchgeknallten Professor, der in dieser Situation der einzige Mann ist, der ihm Glauben schenken würde. Von nun an nennt sich Shin'ichi selbst Edogawa Conan und versucht, sein früheres Leben fortzusetzen. Schnell muss er jedoch feststellen, dass das Leben als sechsjähriger Meisterdetektiv nicht so einfach ist - vor allem, wenn man der wahrscheinlich größten Verbrecherbande der Welt auf der Spur ist: Den Männern in Schwarz...

    [​IMG]
    Episoden:
    240 / ???
    Spieldauer: 24 Min.
    Source: WebRip
    Format: MKV
    Video-Codec: x264
    Sprache: Deutsch
    Untertitel: Überschriften
    Publisher: Kazé Deutschland
    Auflösung: 720p
    Audio-Codec: AAC
    Größe 720p: 400 - 700 MB
    Parts: 1 Part pro Folge

    Code:
    Format                      : Matroska
    Format version              : Version 4 / Version 2
    File size                   : 489 MiB
    Duration                    : 23mn 30s
    Overall bit rate            : 2 910 Kbps
    Encoded date                : UTC 2018-04-29 20:16:58
    Writing application         : mkvmerge v17.0.0 ('Be Ur Friend') 64-bit
    Writing library             : libebml v1.3.5 + libmatroska v1.4.8
    
    Video
    ID                          : 1
    Format                      : AVC
    Format/Info                 : Advanced Video Codec
    Format profile              : High@L4
    Format settings, CABAC      : Yes
    Format settings, ReFrames   : 9 frames
    Codec ID                    : V_MPEG4/ISO/AVC
    Duration                    : 23mn 30s
    Bit rate                    : 2 650 Kbps
    Width                       : 960 pixels
    Height                      : 720 pixels
    Display aspect ratio        : 4:3
    Frame rate mode             : Variable
    Frame rate                  : 23.976 fps
    Color space                 : YUV
    Chroma subsampling          : 4:2:0
    Bit depth                   : 8 bits
    Scan type                   : Progressive
    Bits/(Pixel*Frame)          : 0.160
    Stream size                 : 446 MiB (91%)
    Writing library             : x264 core 152 r2851 ba24899
    Encoding settings           : cabac=1 / ref=9 / deblock=1:1:0 / analyse=0x3:0x133 / me=umh / subme=10 / psy=1 / psy_rd=0.80:0.20 / mixed_ref=1 / me_range=24 / chroma_me=1 / trellis=2 / 8x8dct=1 / cqm=0 / deadzone=21,11 / fast_pskip=1 / chroma_qp_offset=-3 / threads=22 / lookahead_threads=5 / sliced_threads=0 / nr=0 / decimate=0 / interlaced=0 / bluray_compat=0 / constrained_intra=0 / bframes=16 / b_pyramid=2 / b_adapt=2 / b_bias=0 / direct=3 / weightb=1 / open_gop=0 / weightp=2 / keyint=96 / keyint_min=9 / scenecut=0 / intra_refresh=0 / rc_lookahead=80 / rc=crf / mbtree=1 / crf=17.0 / qcomp=0.60 / qpmin=0 / qpmax=69 / qpstep=4 / vbv_maxrate=4096 / vbv_bufsize=10240 / crf_max=0.0 / nal_hrd=none / filler=0 / ip_ratio=1.40 / aq=3:1.20
    Default                     : Yes
    Forced                      : No
    
    Audio
    ID                          : 2
    Format                      : AAC
    Format/Info                 : Advanced Audio Codec
    Format profile              : LC
    Codec ID                    : A_AAC
    Duration                    : 23mn 30s
    Bit rate                    : 256 Kbps
    Channel(s)                  : 2 channels
    Channel positions           : Front: L R
    Sampling rate               : 48.0 KHz
    Frame rate                  : 46.875 fps (1024 spf)
    Compression mode            : Lossy
    Delay relative to video     : -83ms
    Stream size                 : 43.1 MiB (9%)
    Default                     : Yes
    Forced                      : No

    [​IMG]
    E001 - 050 [​IMG]
    E051 - 100 [​IMG]
    E101 - 150 [​IMG]
    E151 - 200 [​IMG]
    E201 - 250 [​IMG]

    Geschützter Bereich
    Registriere dich oder logge dich ein, um den Inhalt sehen zu können
     
    Zuletzt bearbeitet: 17. Sep. 2019 um 04:35 Uhr
  2. Fuuko

    Fuuko Erfahrener Otaku Otaku König

    Registriert seit:
    19. Sep. 2018
    Beiträge:
    159
    Zustimmungen:
    5.740
    Neue Episoden hinzugefügt
    Episode 239 Nichts als Lügen (1)
    Episode 240 Nichts als Lügen (2)