Wir verwenden Cookies, um deinen Aufenthalt auf Animes.so möglichst angenehm gestalten zu können. Mehr erfahren

Merc Storia: Mukiryoku Shounen to Bin no Naka no Shoujo [Laufend][Jap-Dub][Ger-Sub][720p|1080p Plus][WebRip] - AoD

Dieses Thema im Forum "Serien (GerSub)" wurde erstellt von Ta@, 11. Okt. 2018.

  1. Ta@

    Ta@ Treues Mitglied Seelenverkäufer

    Registriert seit:
    7. Juli 2016
    Beiträge:
    366
    Zustimmungen:
    8.977
    Merc Storia: Mukiryoku Shounen to Bin no Naka no Shoujo
    Merc StoriA
    Merc Storia: The Apathetic Boy and the Girl in a Bottl

    [​IMG]
    [​IMG]

    Merc Storia spielt in einer Welt, in der Menschen und Monster miteinander koexistieren. Yuu ist ein angehender Heiler und besitzt die besondere Fähigkeit, Monster zu zähmen. Eines Tages trifft er auf Merc, ein Mädchen, das in einem Flakon eingesperrt ist. Um ihre Erinnerungen wiederherzustellen, begeben sich die beiden auf eine abenteuerliche Reise!
    Folgen: 2/12
    Größe pro Folge: ~325 MB/~1230 MB
    Folgendauer: ~24 Min
    Releaser: Ta@
    Art: Lizenzrelease
    Sprache: Japanisch
    Untertitel: Deutsch
    Jahr: 2018
    Genres: Alternative Welt, Monster
    Auflösung: 1280x720/1920x1080
    Format: MKV
    Quelle: WebRip
    Videocodec: x264
    Farbtiefe: 8Bit
    Audiocodec: AAC
    Publisher: Anime-on-Demand
    Hoster: Share-Online

    [​IMG]
    Code:
    General Complete name : [Ta@]Merc_StoriA_GerSub_01_[Web,720p,AAC].mkv Format : Matroska Format version : Version 4 File size : 327 MiB Duration : 23 min 39 s Overall bit rate : 1 931 kb/s Encoded date : UTC 2018-10-11 14:45:12 Writing application : mkvmerge v10.0.0 ('To Drown In You') 64bit Writing library : libebml v1.3.4 + libmatroska v1.4.5 Attachments : lt.ttf Video ID : 1 Format : AVC Format/Info : Advanced Video Codec Format profile : High@L4 Format settings : CABAC / 9 Ref Frames Format settings, CABAC : Yes Format settings, RefFrames : 9 frames Codec ID : V_MPEG4/ISO/AVC Duration : 23 min 39 s Bit rate : 1 672 kb/s Width : 1 280 pixels Height : 720 pixels Display aspect ratio : 16:9 Frame rate mode : Constant Frame rate : 23.976 (24000/1001) FPS Color space : YUV Chroma subsampling : 4:2:0 Bit depth : 8 bits Scan type : Progressive Bits/(Pixel*Frame) : 0.076 Stream size : 283 MiB (87%) Writing library : x264 core 152 r2851 ba24899 Encoding settings : cabac=1 / ref=9 / deblock=1:0:-1 / analyse=0x3:0x133 / me=umh / subme=10 / psy=1 / psy_rd=0.60:0.10 / mixed_ref=1 / me_range=24 / chroma_me=1 / trellis=2 / 8x8dct=1 / cqm=0 / deadzone=21,11 / fast_pskip=1 / chroma_qp_offset=-3 / threads=22 / lookahead_threads=5 / sliced_threads=0 / nr=0 / decimate=0 / interlaced=0 / bluray_compat=0 / constrained_intra=0 / bframes=16 / b_pyramid=2 / b_adapt=2 / b_bias=0 / direct=3 / weightb=1 / open_gop=0 / weightp=2 / keyint=192 / keyint_min=19 / scenecut=0 / intra_refresh=0 / rc_lookahead=80 / rc=crf / mbtree=1 / crf=17.0 / qcomp=0.60 / qpmin=0 / qpmax=69 / qpstep=4 / vbv_maxrate=4096 / vbv_bufsize=10240 / crf_max=0.0 / nal_hrd=none / filler=0 / ip_ratio=1.40 / aq=3:1.10 Default : Yes Forced : No Audio ID : 2 Format : AAC LC Format/Info : Advanced Audio Codec Low Complexity Codec ID : A_AAC-2 Duration : 23 min 39 s Bit rate : 256 kb/s Channel(s) : 2 channels Channel layout : L R Sampling rate : 48.0 kHz Frame rate : 46.875 FPS (1024 SPF) Compression mode : Lossy Delay relative to video : -83 ms Stream size : 43.3 MiB (13%) Default : Yes Forced : No ​
    Code:
    General Complete name : [Ta@]Merc_StoriA_GerSub_01_[Web,1080pPlus,AAC].mkv Format : Matroska Format version : Version 4 File size : 1.20 GiB Duration : 23 min 39 s Overall bit rate : 7 278 kb/s Encoded date : UTC 2018-10-11 15:16:33 Writing application : mkvmerge v10.0.0 ('To Drown In You') 64bit Writing library : libebml v1.3.4 + libmatroska v1.4.5 Attachments : lt.ttf Video ID : 1 Format : AVC Format/Info : Advanced Video Codec Format profile : High@L5 Format settings : CABAC / 12 Ref Frames Format settings, CABAC : Yes Format settings, RefFrames : 12 frames Codec ID : V_MPEG4/ISO/AVC Duration : 23 min 39 s Bit rate : 7 019 kb/s Width : 1 920 pixels Height : 1 080 pixels Display aspect ratio : 16:9 Frame rate mode : Constant Frame rate : 23.976 (24000/1001) FPS Color space : YUV Chroma subsampling : 4:2:0 Bit depth : 8 bits Scan type : Progressive Bits/(Pixel*Frame) : 0.141 Stream size : 1.16 GiB (96%) Writing library : x264 core 152 r2851 ba24899 Encoding settings : cabac=1 / ref=12 / deblock=1:0:-1 / analyse=0x3:0x133 / me=umh / subme=10 / psy=1 / psy_rd=0.70:0.15 / mixed_ref=1 / me_range=24 / chroma_me=1 / trellis=2 / 8x8dct=1 / cqm=0 / deadzone=21,11 / fast_pskip=1 / chroma_qp_offset=-3 / threads=24 / lookahead_threads=6 / sliced_threads=0 / nr=0 / decimate=0 / interlaced=0 / bluray_compat=0 / constrained_intra=0 / bframes=16 / b_pyramid=2 / b_adapt=2 / b_bias=0 / direct=3 / weightb=1 / open_gop=0 / weightp=2 / keyint=192 / keyint_min=19 / scenecut=0 / intra_refresh=0 / rc_lookahead=80 / rc=crf / mbtree=1 / crf=15.0 / qcomp=0.60 / qpmin=0 / qpmax=69 / qpstep=4 / vbv_maxrate=20480 / vbv_bufsize=40960 / crf_max=0.0 / nal_hrd=none / filler=0 / ip_ratio=1.40 / aq=3:1.10 Default : Yes Forced : No Audio ID : 2 Format : AAC LC Format/Info : Advanced Audio Codec Low Complexity Codec ID : A_AAC-2 Duration : 23 min 39 s Bit rate : 256 kb/s Channel(s) : 2 channels Channel layout : L R Sampling rate : 48.0 kHz Frame rate : 46.875 FPS (1024 SPF) Compression mode : Lossy Delay relative to video : -83 ms Stream size : 43.3 MiB (4%) Default : Yes Forced : No ​

    Anmerkung:
    Die Untertitel sind im Video eingebrannt.

    720p:[​IMG]1080p:[​IMG]

    Geschützter Bereich
    Registriere dich oder logge dich ein, um den Inhalt sehen zu können
     
    Zuletzt bearbeitet: 18. Okt. 2018 um 21:03 Uhr
    vgws, tokyodrift, Mr.Shit und 24 anderen gefällt das.
  2. Ta@

    Ta@ Treues Mitglied Seelenverkäufer

    Registriert seit:
    7. Juli 2016
    Beiträge:
    366
    Zustimmungen:
    8.977
    ~Folge 2 online~