1. Die erweiterte Suche funktioniert wieder. Die LiveSearch ist vorübergehend deaktiviert

Wir verwenden Cookies, um deinen Aufenthalt auf Animes.so möglichst angenehm gestalten zu können. Mehr erfahren

Mob Psycho 100 [Ger-Jap-Dub][Ger-Sub][AAC|AC-3|DTS-HD][404p|720p|1080p][BluRay] - Fuuko

Dieses Thema im Forum "Serien (GerDub)" wurde erstellt von Fuuko, 5. Aug. 2019.

  1. Fuuko

    Fuuko Erfahrener Otaku Otaku König

    Registriert seit:
    19. Sep. 2018
    Beiträge:
    159
    Zustimmungen:
    5.758
    Mob Psycho 100

    [​IMG] [​IMG]

    [​IMG]
    [​IMG]
    Episoden: 12 / 12
    Spieldauer: 24 Min.
    Source: Deutsche Original BluRay
    Release by: Fuuko
    Format: mkv
    Sprache: Deutsch [2.0] | Japanisch [2.0]
    Untertitel: Deutsch (Full) | Deutsch (Forced)
    Audio: AAC [384 kb/s] | AC-3 [384 kb/s] | DTS-HD [2200 kb/s]
    Auflösung : 720x404 | 1280x720 | 1920x1080
    Größe: 350MB | 650MB | 1250MB | 1900MB
    Code:
    Complete name               : Mob.Psycho.100.E01.German.AAC.DL.BDRiP.x264-Fuuko.mkv
    Format                      : Matroska
    Format version              : Version 4
    File size                   : 350 MiB
    Duration                    : 24 min 10 s
    Overall bit rate            : 2 022 kb/s
    Encoded date                : UTC 2019-08-04 20:57:18
    Writing application         : mkvmerge v10.0.0 ('To Drown In You') 64bit
    Writing library             : libebml v1.3.4 + libmatroska v1.4.5
    
    Video
    ID                          : 1
    Format                      : AVC
    Format/Info                 : Advanced Video Codec
    Format profile              : High@L4.1
    Format settings             : CABAC / 4 Ref Frames
    Format settings, CABAC      : Yes
    Format settings, ReFrames   : 4 frames
    Codec ID                    : V_MPEG4/ISO/AVC
    Duration                    : 24 min 9 s
    Bit rate                    : 1 249 kb/s
    Width                       : 720 pixels
    Height                      : 404 pixels
    Display aspect ratio        : 16:9
    Frame rate mode             : Constant
    Frame rate                  : 23.976 (24000/1001) FPS
    Color space                 : YUV
    Chroma subsampling          : 4:2:0
    Bit depth                   : 8 bits
    Scan type                   : Progressive
    Bits/(Pixel*Frame)          : 0.179
    Stream size                 : 216 MiB (62%)
    Writing library             : x264 core 148
    Encoding settings           : cabac=1 / ref=4 / deblock=1:1:1 / analyse=0x3:0 / me=hex / subme=5 / psy=0 / mixed_ref=0 / me_range=16 / chroma_me=1 / trellis=0 / 8x8dct=1 / cqm=0 / deadzone=21,11 / fast_pskip=0 / chroma_qp_offset=0 / threads=8 / lookahead_threads=2 / sliced_threads=0 / nr=0 / decimate=1 / interlaced=0 / bluray_compat=0 / constrained_intra=0 / bframes=2 / b_pyramid=0 / b_adapt=1 / b_bias=0 / direct=1 / weightb=0 / open_gop=0 / weightp=0 / keyint=24 / keyint_min=13 / scenecut=40 / intra_refresh=0 / rc=crf / mbtree=0 / crf=19.0 / qcomp=0.60 / qpmin=0 / qpmax=69 / qpstep=4 / ip_ratio=1.40 / pb_ratio=1.30 / aq=1:1.00
    Default                     : Yes
    Forced                      : No
    Color range                 : Limited
    Color primaries             : BT.601 NTSC
    Transfer characteristics    : BT.709
    Matrix coefficients         : BT.601
    
    Audio #1
    ID                          : 2
    Format                      : AAC LC
    Format/Info                 : Advanced Audio Codec Low Complexity
    Codec ID                    : A_AAC-2
    Duration                    : 24 min 10 s
    Bit rate                    : 384 kb/s
    Channel(s)                  : 2 channels
    Channel layout              : L R
    Sampling rate               : 48.0 kHz
    Frame rate                  : 46.875 FPS (1024 SPF)
    Compression mode            : Lossy
    Stream size                 : 65.9 MiB (19%)
    Language                    : German
    Default                     : Yes
    Forced                      : No
    
    Audio #2
    ID                          : 3
    Format                      : AAC LC
    Format/Info                 : Advanced Audio Codec Low Complexity
    Codec ID                    : A_AAC-2
    Duration                    : 24 min 10 s
    Bit rate                    : 384 kb/s
    Channel(s)                  : 2 channels
    Channel layout              : L R
    Sampling rate               : 48.0 kHz
    Frame rate                  : 46.875 FPS (1024 SPF)
    Compression mode            : Lossy
    Stream size                 : 65.9 MiB (19%)
    Language                    : Japanese
    Default                     : No
    Forced                      : No
    
    Text #1
    ID                          : 4
    Format                      : PGS
    Muxing mode                 : zlib
    Codec ID                    : S_HDMV/PGS
    Codec ID/Info               : Picture based subtitle format used on BDs/HD-DVDs
    Duration                    : 22 min 30 s
    Bit rate                    : 1 047 b/s
    Count of elements           : 82
    Stream size                 : 173 KiB (0%)
    Language                    : German
    Default                     : No
    Forced                      : No
    
    Text #2
    ID                          : 5
    Format                      : PGS
    Muxing mode                 : zlib
    Codec ID                    : S_HDMV/PGS
    Codec ID/Info               : Picture based subtitle format used on BDs/HD-DVDs
    Duration                    : 22 min 30 s
    Bit rate                    : 9 532 b/s
    Count of elements           : 768
    Stream size                 : 1.53 MiB (0%)
    Language                    : German
    Default                     : No
    Forced                      : No
    
    Menu
    00:00:00.000                : en:(01)00:00:00:000
    00:09:25.022                : en:(02)00:09:25:022
    00:13:05.034                : en:(03)00:13:05:034
    00:22:44.529                : en:(04)00:22:44:529
    00:23:55.016                : en:(05)00:23:55:016
    00:24:10.031                : en:(06)00:24:10:031
    Code:
    Complete name               : Mob.Psycho.100.E01.German.AC3.DL.720p.BluRay.x264-Fuuko.mkv
    Format                      : Matroska
    Format version              : Version 4
    File size                   : 654 MiB
    Duration                    : 24 min 10 s
    Overall bit rate            : 3 782 kb/s
    Encoded date                : UTC 2019-08-04 20:51:14
    Writing application         : mkvmerge v10.0.0 ('To Drown In You') 64bit
    Writing library             : libebml v1.3.4 + libmatroska v1.4.5
    
    Video
    ID                          : 1
    Format                      : AVC
    Format/Info                 : Advanced Video Codec
    Format profile              : High@L4.1
    Format settings             : CABAC / 4 Ref Frames
    Format settings, CABAC      : Yes
    Format settings, ReFrames   : 4 frames
    Codec ID                    : V_MPEG4/ISO/AVC
    Duration                    : 24 min 9 s
    Bit rate                    : 2 996 kb/s
    Width                       : 1 280 pixels
    Height                      : 720 pixels
    Display aspect ratio        : 16:9
    Frame rate mode             : Constant
    Frame rate                  : 23.976 (24000/1001) FPS
    Color space                 : YUV
    Chroma subsampling          : 4:2:0
    Bit depth                   : 8 bits
    Scan type                   : Progressive
    Bits/(Pixel*Frame)          : 0.136
    Stream size                 : 518 MiB (79%)
    Writing library             : x264 core 148
    Encoding settings           : cabac=1 / ref=4 / deblock=1:1:1 / analyse=0x3:0 / me=hex / subme=5 / psy=0 / mixed_ref=0 / me_range=16 / chroma_me=1 / trellis=0 / 8x8dct=1 / cqm=0 / deadzone=21,11 / fast_pskip=0 / chroma_qp_offset=0 / threads=8 / lookahead_threads=2 / sliced_threads=0 / nr=0 / decimate=1 / interlaced=0 / bluray_compat=0 / constrained_intra=0 / bframes=2 / b_pyramid=0 / b_adapt=1 / b_bias=0 / direct=1 / weightb=0 / open_gop=0 / weightp=0 / keyint=24 / keyint_min=13 / scenecut=40 / intra_refresh=0 / rc=crf / mbtree=0 / crf=19.0 / qcomp=0.60 / qpmin=0 / qpmax=69 / qpstep=4 / ip_ratio=1.40 / pb_ratio=1.30 / aq=1:1.00
    Default                     : Yes
    Forced                      : No
    Color range                 : Limited
    Color primaries             : BT.709
    Transfer characteristics    : BT.709
    Matrix coefficients         : BT.709
    
    Audio #1
    ID                          : 2
    Format                      : AC-3
    Format/Info                 : Audio Coding 3
    Commercial name             : Dolby Digital
    Codec ID                    : A_AC3
    Duration                    : 24 min 9 s
    Bit rate mode               : Constant
    Bit rate                    : 384 kb/s
    Channel(s)                  : 2 channels
    Channel layout              : L R
    Sampling rate               : 48.0 kHz
    Frame rate                  : 31.250 FPS (1536 SPF)
    Bit depth                   : 16 bits
    Compression mode            : Lossy
    Stream size                 : 66.4 MiB (10%)
    Language                    : German
    Service kind                : Complete Main
    Default                     : Yes
    Forced                      : No
    
    Audio #2
    ID                          : 3
    Format                      : AC-3
    Format/Info                 : Audio Coding 3
    Commercial name             : Dolby Digital
    Codec ID                    : A_AC3
    Duration                    : 24 min 9 s
    Bit rate mode               : Constant
    Bit rate                    : 384 kb/s
    Channel(s)                  : 2 channels
    Channel layout              : L R
    Sampling rate               : 48.0 kHz
    Frame rate                  : 31.250 FPS (1536 SPF)
    Bit depth                   : 16 bits
    Compression mode            : Lossy
    Stream size                 : 66.4 MiB (10%)
    Language                    : Japanese
    Service kind                : Complete Main
    Default                     : No
    Forced                      : No
    
    Text #1
    ID                          : 4
    Format                      : PGS
    Muxing mode                 : zlib
    Codec ID                    : S_HDMV/PGS
    Codec ID/Info               : Picture based subtitle format used on BDs/HD-DVDs
    Duration                    : 22 min 30 s
    Bit rate                    : 1 870 b/s
    Count of elements           : 82
    Stream size                 : 308 KiB (0%)
    Language                    : German
    Default                     : No
    Forced                      : No
    
    Text #2
    ID                          : 5
    Format                      : PGS
    Muxing mode                 : zlib
    Codec ID                    : S_HDMV/PGS
    Codec ID/Info               : Picture based subtitle format used on BDs/HD-DVDs
    Duration                    : 22 min 30 s
    Bit rate                    : 17.7 kb/s
    Count of elements           : 768
    Stream size                 : 2.85 MiB (0%)
    Language                    : German
    Default                     : No
    Forced                      : No
    
    Menu
    00:00:00.000                : en:(01)00:00:00:000
    00:09:25.022                : en:(02)00:09:25:022
    00:13:05.034                : en:(03)00:13:05:034
    00:22:44.529                : en:(04)00:22:44:529
    00:23:55.016                : en:(05)00:23:55:016
    Code:
    Complete name               : Mob.Psycho.100.E01.German.AC3.DL.1080p.BluRay.x264-Fuuko.mkv
    Format                      : Matroska
    Format version              : Version 4
    File size                   : 1.21 GiB
    Duration                    : 24 min 10 s
    Overall bit rate            : 7 165 kb/s
    Encoded date                : UTC 2019-08-04 20:38:08
    Writing application         : mkvmerge v10.0.0 ('To Drown In You') 64bit
    Writing library             : libebml v1.3.4 + libmatroska v1.4.5
    
    Video
    ID                          : 1
    Format                      : AVC
    Format/Info                 : Advanced Video Codec
    Format profile              : High@L4.1
    Format settings             : CABAC / 4 Ref Frames
    Format settings, CABAC      : Yes
    Format settings, ReFrames   : 4 frames
    Codec ID                    : V_MPEG4/ISO/AVC
    Duration                    : 24 min 9 s
    Bit rate                    : 6 339 kb/s
    Width                       : 1 920 pixels
    Height                      : 1 080 pixels
    Display aspect ratio        : 16:9
    Frame rate mode             : Constant
    Frame rate                  : 23.976 (24000/1001) FPS
    Color space                 : YUV
    Chroma subsampling          : 4:2:0
    Bit depth                   : 8 bits
    Scan type                   : Progressive
    Bits/(Pixel*Frame)          : 0.127
    Stream size                 : 1.07 GiB (88%)
    Writing library             : x264 core 148
    Encoding settings           : cabac=1 / ref=4 / deblock=1:1:1 / analyse=0x3:0 / me=hex / subme=5 / psy=0 / mixed_ref=0 / me_range=16 / chroma_me=1 / trellis=0 / 8x8dct=1 / cqm=0 / deadzone=21,11 / fast_pskip=0 / chroma_qp_offset=0 / threads=8 / lookahead_threads=2 / sliced_threads=0 / nr=0 / decimate=1 / interlaced=0 / bluray_compat=0 / constrained_intra=0 / bframes=2 / b_pyramid=0 / b_adapt=1 / b_bias=0 / direct=1 / weightb=0 / open_gop=0 / weightp=0 / keyint=24 / keyint_min=13 / scenecut=40 / intra_refresh=0 / rc=crf / mbtree=0 / crf=19.0 / qcomp=0.60 / qpmin=0 / qpmax=69 / qpstep=4 / ip_ratio=1.40 / pb_ratio=1.30 / aq=1:1.00
    Default                     : Yes
    Forced                      : No
    Color range                 : Limited
    Color primaries             : BT.709
    Transfer characteristics    : BT.709
    Matrix coefficients         : BT.709
    
    Audio #1
    ID                          : 2
    Format                      : AC-3
    Format/Info                 : Audio Coding 3
    Commercial name             : Dolby Digital
    Codec ID                    : A_AC3
    Duration                    : 24 min 9 s
    Bit rate mode               : Constant
    Bit rate                    : 384 kb/s
    Channel(s)                  : 2 channels
    Channel layout              : L R
    Sampling rate               : 48.0 kHz
    Frame rate                  : 31.250 FPS (1536 SPF)
    Bit depth                   : 16 bits
    Compression mode            : Lossy
    Stream size                 : 66.4 MiB (5%)
    Language                    : German
    Service kind                : Complete Main
    Default                     : Yes
    Forced                      : No
    
    Audio #2
    ID                          : 3
    Format                      : AC-3
    Format/Info                 : Audio Coding 3
    Commercial name             : Dolby Digital
    Codec ID                    : A_AC3
    Duration                    : 24 min 9 s
    Bit rate mode               : Constant
    Bit rate                    : 384 kb/s
    Channel(s)                  : 2 channels
    Channel layout              : L R
    Sampling rate               : 48.0 kHz
    Frame rate                  : 31.250 FPS (1536 SPF)
    Bit depth                   : 16 bits
    Compression mode            : Lossy
    Stream size                 : 66.4 MiB (5%)
    Language                    : Japanese
    Service kind                : Complete Main
    Default                     : No
    Forced                      : No
    
    Text #1
    ID                          : 4
    Format                      : PGS
    Muxing mode                 : zlib
    Codec ID                    : S_HDMV/PGS
    Codec ID/Info               : Picture based subtitle format used on BDs/HD-DVDs
    Duration                    : 22 min 30 s
    Bit rate                    : 6 238 b/s
    Count of elements           : 82
    Stream size                 : 1.00 MiB (0%)
    Language                    : German
    Default                     : No
    Forced                      : No
    
    Text #2
    ID                          : 5
    Format                      : PGS
    Muxing mode                 : zlib
    Codec ID                    : S_HDMV/PGS
    Codec ID/Info               : Picture based subtitle format used on BDs/HD-DVDs
    Duration                    : 22 min 30 s
    Bit rate                    : 60.3 kb/s
    Count of elements           : 768
    Stream size                 : 9.71 MiB (1%)
    Language                    : German
    Default                     : No
    Forced                      : No
    
    Menu
    00:00:00.000                : en:(01)00:00:00:000
    00:09:25.022                : en:(02)00:09:25:022
    00:13:05.034                : en:(03)00:13:05:034
    00:22:44.529                : en:(04)00:22:44:529
    00:23:55.016                : en:(05)00:23:55:016
    Code:
    Complete name               : Mob.Psycho.100.E01.German.DTS.DL.1080p.BluRay.x264-Fuuko.mkv
    Format                      : Matroska
    Format version              : Version 4
    File size                   : 1.84 GiB
    Duration                    : 24 min 10 s
    Overall bit rate mode       : Variable
    Overall bit rate            : 10.9 Mb/s
    Encoded date                : UTC 2019-08-04 20:12:40
    Writing application         : mkvmerge v10.0.0 ('To Drown In You') 64bit
    Writing library             : libebml v1.3.4 + libmatroska v1.4.5
    
    Video
    ID                          : 1
    Format                      : AVC
    Format/Info                 : Advanced Video Codec
    Format profile              : High@L4.1
    Format settings             : CABAC / 4 Ref Frames
    Format settings, CABAC      : Yes
    Format settings, ReFrames   : 4 frames
    Codec ID                    : V_MPEG4/ISO/AVC
    Duration                    : 24 min 9 s
    Bit rate                    : 6 339 kb/s
    Width                       : 1 920 pixels
    Height                      : 1 080 pixels
    Display aspect ratio        : 16:9
    Frame rate mode             : Constant
    Frame rate                  : 23.976 (24000/1001) FPS
    Color space                 : YUV
    Chroma subsampling          : 4:2:0
    Bit depth                   : 8 bits
    Scan type                   : Progressive
    Bits/(Pixel*Frame)          : 0.127
    Stream size                 : 1.07 GiB (58%)
    Writing library             : x264 core 148
    Encoding settings           : cabac=1 / ref=4 / deblock=1:1:1 / analyse=0x3:0 / me=hex / subme=5 / psy=0 / mixed_ref=0 / me_range=16 / chroma_me=1 / trellis=0 / 8x8dct=1 / cqm=0 / deadzone=21,11 / fast_pskip=0 / chroma_qp_offset=0 / threads=8 / lookahead_threads=2 / sliced_threads=0 / nr=0 / decimate=1 / interlaced=0 / bluray_compat=0 / constrained_intra=0 / bframes=2 / b_pyramid=0 / b_adapt=1 / b_bias=0 / direct=1 / weightb=0 / open_gop=0 / weightp=0 / keyint=24 / keyint_min=13 / scenecut=40 / intra_refresh=0 / rc=crf / mbtree=0 / crf=19.0 / qcomp=0.60 / qpmin=0 / qpmax=69 / qpstep=4 / ip_ratio=1.40 / pb_ratio=1.30 / aq=1:1.00
    Default                     : Yes
    Forced                      : No
    Color range                 : Limited
    Color primaries             : BT.709
    Transfer characteristics    : BT.709
    Matrix coefficients         : BT.709
    
    Audio #1
    ID                          : 2
    Format                      : DTS XLL
    Format/Info                 : Digital Theater Systems
    Commercial name             : DTS-HD Master Audio
    Codec ID                    : A_DTS
    Duration                    : 24 min 10 s
    Bit rate mode               : Variable
    Bit rate                    : 2 238 kb/s
    Channel(s)                  : 2 channels
    Channel layout              : L R
    Sampling rate               : 48.0 kHz
    Frame rate                  : 93.750 FPS (512 SPF)
    Bit depth                   : 24 bits
    Compression mode            : Lossless
    Stream size                 : 387 MiB (21%)
    Language                    : German
    Default                     : Yes
    Forced                      : No
    
    Audio #2
    ID                          : 3
    Format                      : DTS XLL
    Format/Info                 : Digital Theater Systems
    Commercial name             : DTS-HD Master Audio
    Codec ID                    : A_DTS
    Duration                    : 24 min 10 s
    Bit rate mode               : Variable
    Bit rate                    : 2 236 kb/s
    Channel(s)                  : 2 channels
    Channel layout              : L R
    Sampling rate               : 48.0 kHz
    Frame rate                  : 93.750 FPS (512 SPF)
    Bit depth                   : 24 bits
    Compression mode            : Lossless
    Stream size                 : 387 MiB (21%)
    Language                    : Japanese
    Default                     : No
    Forced                      : No
    
    Text #1
    ID                          : 4
    Format                      : PGS
    Muxing mode                 : zlib
    Codec ID                    : S_HDMV/PGS
    Codec ID/Info               : Picture based subtitle format used on BDs/HD-DVDs
    Duration                    : 22 min 30 s
    Bit rate                    : 6 238 b/s
    Count of elements           : 82
    Stream size                 : 1.00 MiB (0%)
    Language                    : German
    Default                     : No
    Forced                      : No
    
    Text #2
    ID                          : 5
    Format                      : PGS
    Muxing mode                 : zlib
    Codec ID                    : S_HDMV/PGS
    Codec ID/Info               : Picture based subtitle format used on BDs/HD-DVDs
    Duration                    : 22 min 30 s
    Bit rate                    : 60.3 kb/s
    Count of elements           : 768
    Stream size                 : 9.71 MiB (1%)
    Language                    : German
    Default                     : No
    Forced                      : No
    
    Menu
    00:00:00.000                : en:(01)00:00:00:000
    00:09:25.022                : en:(02)00:09:25:022
    00:13:05.034                : en:(03)00:13:05:034
    00:22:44.529                : en:(04)00:22:44:529
    00:23:55.016                : en:(05)00:23:55:016
    [​IMG]
    404p - AAC [​IMG]
    720p - AC-3 [​IMG]
    1080p - AC-3 [​IMG]
    1080p - DTS-HD [​IMG]
    Geschützter Bereich
    Registriere dich oder logge dich ein, um den Inhalt sehen zu können
     
    Zuletzt bearbeitet: 9. Sep. 2019
  2. Uploading123

    Uploading123 High Quality Anime Nolife

    Registriert seit:
    7. März 2013
    Beiträge:
    759
    Zustimmungen:
    18.195

    Mob Psycho 100 S01

    [​IMG]

    .:Beschreibung:.
    Im Normalfall wäre Shigeo aka Mob ein Fall für die Tonne: ein lethargischer Schwachmat mit unscheinbarem Äußeren, noch dazu schlecht in der Schule. Hobbys? Fehlanzeige. Doch eins hebt ihn vom ganzen Rest ab – er hat übernatürliche Kräfte, die ungeahnte Ausmaße annehmen können! Aus dem Grund arbeitet er für Arataka Reigen, ein selbst ernanntes Medium, dessen Glaubwürdigkeit zum Himmel stinkt – bis Mob merkt, dass er nicht nur arbeiten, sondern mehr aus seinem Leben machen möchte. Ganz oben auf seiner Liste: Tsubomi gefallen! So tritt er dem Körperkraft-Klub „Kerlkraftwerk“ bei. Als er dadurch eines Tages zum Ziel einer befeindeten Schulgang wird, trifft er auf einen weiteren Jungen mit übernatürlichen Fähigkeiten. Doch dass dieser seine Kräfte im Kampf gegen Menschen einsetzt, kann Mob nicht verzeihen, und es beginnt in ihm zu brodeln …

    .:Info:.
    Größe: 23030 MB
    Laufzeit: 24 Min.
    Format: .mkv
    Video Stream: BD
    Video Codec: MPEG-4 H.264 / AVC
    Audio Stream: DTS-HD MA 2.0
    Sprache/n: GER, JPN
    Untertitel: GER
    Releaser: Fuuko
    Episodenanzahl: 12/12
    IMDb: 8.5
    Hoster: SO, RG

    .:NFO:.
    Code:
    Format                                   : Matroska
    Format-Version                           : Version 4 / Version 2
    Dateigröße                               : 1,84 GiB
    Dauer                                    : 24 min 10s
    Gesamte Bitrate                          : 10,9 Mb/s
    Kodierungs-Datum                         : UTC 2019-08-04 20:12:40
    Kodierendes Programm                     : mkvmerge v10.0.0 ('To Drown In You') 64bit
    verwendete Encoder-Bibliothek            : libebml v1.3.4 + libmatroska v1.4.5
    
    Video
    ID                                       : 1
    Format                                   : AVC
    Format/Info                              : Advanced Video Codec
    Format-Profil                            : High@L4.1
    Format-Einstellungen                     : CABAC / 4 Ref Frames
    Format-Einstellungen für CABAC           : Ja
    Format-Einstellungen für RefFrames       : 4 frames
    Codec-ID                                 : V_MPEG4/ISO/AVC
    Dauer                                    : 24 min 9s
    Bitrate                                  : 6 339 kb/s
    Breite                                   : 1 920 Pixel
    Höhe                                     : 1 080 Pixel
    Bildseitenverhältnis                     : 16:9
    Modus der Bildwiederholungsrate          : konstant
    Bildwiederholungsrate                    : 23,976 (24000/1001) FPS
    ColorSpace                               : YUV
    ChromaSubsampling/String                 : 4:2:0
    BitDepth/String                          : 8 bits
    Scantyp                                  : progressiv
    Bits/(Pixel*Frame)                       : 0.127
    Stream-Größe                             : 1,07 GiB (58%)
    verwendete Encoder-Bibliothek            : x264 core 148
    Kodierungseinstellungen                  : cabac=1 / ref=4 / deblock=1:1:1 / analyse=0x3:0 / me=hex / subme=5 / psy=0 / mixed_ref=0 / me_range=16 / chroma_me=1 / trellis=0 / 8x8dct=1 / cqm=0 / deadzone=21,11 / fast_pskip=0 / chroma_qp_offset=0 / threads=8 / lookahead_threads=2 / sliced_threads=0 / nr=0 / decimate=1 / interlaced=0 / bluray_compat=0 / constrained_intra=0 / bframes=2 / b_pyramid=0 / b_adapt=1 / b_bias=0 / direct=1 / weightb=0 / open_gop=0 / weightp=0 / keyint=24 / keyint_min=13 / scenecut=40 / intra_refresh=0 / rc=crf / mbtree=0 / crf=19.0 / qcomp=0.60 / qpmin=0 / qpmax=69 / qpstep=4 / ip_ratio=1.40 / pb_ratio=1.30 / aq=1:1.00
    Default                                  : Ja
    Forced                                   : Nein
    colour_range                             : Limited
    colour_primaries                         : BT.709
    transfer_characteristics                 : BT.709
    matrix_coefficients                      : BT.709
    
    Audio #1
    ID                                       : 2
    Format                                   : DTS
    Format/Info                              : Digital Theater Systems
    Format-Profil                            : MA / Core
    Codec-ID                                 : A_DTS
    Dauer                                    : 24 min 10s
    Bitraten-Modus                           : variabel / konstant
    Bitrate                                  : 2 238 kb/s / 1 509 kb/s
    Kanäle                                   : 2 Kanäle
    Kanal-Positionen                         : Front: L R
    Samplingrate                             : 48,0 kHz
    Bildwiederholungsrate                    : 93,750 FPS (512 SPF)
    BitDepth/String                          : 24 bits
    Compression_Mode/String                  :  / Lossy
    Stream-Größe                             : 387 MiB (21%)
    Sprache                                  : Deutsch
    Default                                  : Ja
    Forced                                   : Nein
    
    Audio #2
    ID                                       : 3
    Format                                   : DTS
    Format/Info                              : Digital Theater Systems
    Format-Profil                            : MA / Core
    Codec-ID                                 : A_DTS
    Dauer                                    : 24 min 10s
    Bitraten-Modus                           : variabel / konstant
    Bitrate                                  : 2 236 kb/s / 1 509 kb/s
    Kanäle                                   : 2 Kanäle
    Kanal-Positionen                         : Front: L R
    Samplingrate                             : 48,0 kHz
    Bildwiederholungsrate                    : 93,750 FPS (512 SPF)
    BitDepth/String                          : 24 bits
    Compression_Mode/String                  :  / Lossy
    Stream-Größe                             : 387 MiB (21%)
    Sprache                                  : Japanisch
    Default                                  : Nein
    Forced                                   : Nein
    
    Text #1
    ID                                       : 4
    Format                                   : PGS
    Muxing-Modus                             : zlib
    Codec-ID                                 : S_HDMV/PGS
    Codec-ID/Info                            : Picture based subtitle format used on BDs/HD-DVDs
    Dauer                                    : 22 min 30s
    Bitrate                                  : 6 238 b/s
    ElementCount                             : 82
    Stream-Größe                             : 1,00 MiB (0%)
    Sprache                                  : Deutsch
    Default                                  : Nein
    Forced                                   : Nein
    
    Text #2
    ID                                       : 5
    Format                                   : PGS
    Muxing-Modus                             : zlib
    Codec-ID                                 : S_HDMV/PGS
    Codec-ID/Info                            : Picture based subtitle format used on BDs/HD-DVDs
    Dauer                                    : 22 min 30s
    Bitrate                                  : 60,3 kb/s
    ElementCount                             : 768
    Stream-Größe                             : 9,71 MiB (1%)
    Sprache                                  : Deutsch
    Default                                  : Nein
    Forced                                   : Nein
    
    Menü
    00:00:00.000                             : en:(01)00:00:00:000
    00:09:25.022                             : en:(02)00:09:25:022
    00:13:05.034                             : en:(03)00:13:05:034
    00:22:44.529                             : en:(04)00:22:44:529
    00:23:55.016                             : en:(05)00:23:55:016
    
    


    Mirrors kompatibel

    .:Share-online.biz:. [​IMG]
    Geschützter Bereich
    Registriere dich oder logge dich ein, um den Inhalt sehen zu können
    .:Rapidgator.net:. [​IMG]
    Geschützter Bereich
    Registriere dich oder logge dich ein, um den Inhalt sehen zu können
     
    DevilWataru und zimbo201174 gefällt das.