Welcome to our Community
Wanting to join the rest of our members? Feel free to sign up today.
Sign up

Mob Psycho 100 III [Ger-Jap-Eng-Dub][Ger-Eng-Sub][1080p][x264][WebDL] - CR

Kleinmike

Uploader
Otaku König
21 März 2021
221
3.004
93
Mob Psycho 100 III
モブサイコ100 Ⅲ | Mob Psycho 100 III

16661_300.webp


Beschreibung:
»Mob Psycho 100« geht in die dritte Runde und setzt die Geschichte um Mob und seinen Meister Arataka Reigen fort! Zusammen mit Katsuya Seizawa, dem neuen Mitarbeiter des Exorzismusbüros, erledigen Reigen und sein Schüler weiterhin ihre Aufträge und exorzieren Geister. Gleichzeitig heißt es für Mob langsam, eine Entscheidung zu treffen: Was soll er nach der Mittelschule machen? Welche Oberschule will er besuchen? Zudem formiert sich eine neue Gruppierung um den »Heiligen Baum«, einen riesigen Brokkoli, der plötzlich in Gewürzstadt aufgetaucht ist – die Psi-Helm-Anhängerschaft!
Quelle: anisearch



Episoden: 12/12
Größe: ~1400MB
Sprache: Japanisch | Deutsch | Englisch
Untertitel: Deutsch | Englisch
Jahr: 2022
Genres: Actionkomödie, Alltagsleben, Psychodrama
Auflösung: 1920x1080
Format: MKV
Videocodec: AVC
Farbtiefe: 8bit
Audiocodec: AAC LC
Publisher: Crunchyroll
Hoster: DDownload | Uploaded

Mediainfo:
Code:
Format                                   : Matroska
Format version                           : Version 4
File size                                : 1.38 GiB
Duration                                 : 23 min 40 s
Overall bit rate                         : 8 369 kb/s
Encoded date                             : UTC 2022-10-05 19:51:15
Writing application                      : mkvmerge v70.0.0 ('Caught A Lite Sneeze') 64-bit
Writing library                          : libebml v1.4.2 + libmatroska v1.6.4

Video
ID                                       : 1
Format                                   : AVC
Format/Info                              : Advanced Video Codec
Format profile                           : [email protected]
Format settings                          : CABAC / 4 Ref Frames
Format settings, CABAC                   : Yes
Format settings, Reference frames        : 4 frames
Codec ID                                 : V_MPEG4/ISO/AVC
Duration                                 : 23 min 40 s
Bit rate                                 : 8 000 kb/s
Width                                    : 1 920 pixels
Height                                   : 1 080 pixels
Display aspect ratio                     : 16:9
Frame rate mode                          : Constant
Frame rate                               : 23.976 (24000/1001) FPS
Color space                              : YUV
Chroma subsampling                       : 4:2:0
Bit depth                                : 8 bits
Scan type                                : Progressive
Bits/(Pixel*Frame)                       : 0.161
Stream size                              : 1.32 GiB (95%)
Writing library                          : x264 core 142
Encoding settings                        : cabac=1 / ref=4 / deblock=1:1:1 / analyse=0x3:0x113 / me=umh / subme=8 / psy=1 / psy_rd=0.40:0.00 / mixed_ref=1 / me_range=16 / chroma_me=1 / trellis=1 / 8x8dct=1 / cqm=0 / deadzone=21,11 / fast_pskip=1 / chroma_qp_offset=-2 / threads=12 / lookahead_threads=2 / sliced_threads=0 / nr=0 / decimate=1 / interlaced=0 / bluray_compat=0 / constrained_intra=0 / bframes=0 / weightp=2 / keyint=96 / keyint_min=48 / scenecut=40 / intra_refresh=0 / rc_lookahead=48 / rc=2pass / mbtree=1 / bitrate=8000 / ratetol=1.0 / qcomp=0.60 / qpmin=0 / qpmax=69 / qpstep=4 / cplxblur=20.0 / qblur=0.5 / vbv_maxrate=12000 / vbv_bufsize=18000 / nal_hrd=none / filler=0 / ip_ratio=1.40 / aq=1:0.60
Default                                  : Yes
Forced                                   : No

Audio #1
ID                                       : 2
Format                                   : AAC LC
Format/Info                              : Advanced Audio Codec Low Complexity
Codec ID                                 : A_AAC-2
Duration                                 : 23 min 40 s
Bit rate                                 : 128 kb/s
Channel(s)                               : 2 channels
Channel layout                           : L R
Sampling rate                            : 44.1 kHz
Frame rate                               : 43.066 FPS (1024 SPF)
Compression mode                         : Lossy
Stream size                              : 21.7 MiB (2%)
Language                                 : German
Default                                  : Yes
Forced                                   : No

Audio #2
ID                                       : 3
Format                                   : AAC LC
Format/Info                              : Advanced Audio Codec Low Complexity
Codec ID                                 : A_AAC-2
Duration                                 : 23 min 40 s
Bit rate                                 : 128 kb/s
Channel(s)                               : 2 channels
Channel layout                           : L R
Sampling rate                            : 44.1 kHz
Frame rate                               : 43.066 FPS (1024 SPF)
Compression mode                         : Lossy
Stream size                              : 21.7 MiB (2%)
Language                                 : English
Default                                  : No
Forced                                   : No

Audio #3
ID                                       : 4
Format                                   : AAC LC
Format/Info                              : Advanced Audio Codec Low Complexity
Codec ID                                 : A_AAC-2
Duration                                 : 23 min 40 s
Bit rate                                 : 128 kb/s
Channel(s)                               : 2 channels
Channel layout                           : L R
Sampling rate                            : 44.1 kHz
Frame rate                               : 43.066 FPS (1024 SPF)
Compression mode                         : Lossy
Stream size                              : 21.7 MiB (2%)
Language                                 : Japanese
Default                                  : No
Forced                                   : No

Text #1
ID                                       : 5
Format                                   : ASS
Codec ID                                 : S_TEXT/ASS
Codec ID/Info                            : Advanced Sub Station Alpha
Duration                                 : 23 min 39 s
Bit rate                                 : 92 b/s
Frame rate                               : 0.063 FPS
Count of elements                        : 89
Compression mode                         : Lossless
Stream size                              : 16.0 KiB (0%)
Title                                    : German Forced
Language                                 : German
Default                                  : Yes
Forced                                   : No

Text #2
ID                                       : 6
Format                                   : ASS
Codec ID                                 : S_TEXT/ASS
Codec ID/Info                            : Advanced Sub Station Alpha
Duration                                 : 23 min 39 s
Bit rate                                 : 262 b/s
Frame rate                               : 0.326 FPS
Count of elements                        : 463
Compression mode                         : Lossless
Stream size                              : 45.4 KiB (0%)
Title                                    : German Full
Language                                 : German
Default                                  : No
Forced                                   : No

Text #3
ID                                       : 7
Format                                   : ASS
Codec ID                                 : S_TEXT/ASS
Codec ID/Info                            : Advanced Sub Station Alpha
Duration                                 : 23 min 39 s
Bit rate                                 : 79 b/s
Frame rate                               : 0.062 FPS
Count of elements                        : 88
Compression mode                         : Lossless
Stream size                              : 13.7 KiB (0%)
Title                                    : English Forced
Language                                 : English
Default                                  : No
Forced                                   : No

Text #4
ID                                       : 8
Format                                   : ASS
Codec ID                                 : S_TEXT/ASS
Codec ID/Info                            : Advanced Sub Station Alpha
Duration                                 : 23 min 39 s
Bit rate                                 : 235 b/s
Frame rate                               : 0.324 FPS
Count of elements                        : 460
Compression mode                         : Lossless
Stream size                              : 40.8 KiB (0%)
Title                                    : English Full
Language                                 : English
Default                                  : No
Forced                                   : No


Status:
1080p:
722EE75796.png


To view the content, you need to Sign In or Register.
 
Zuletzt bearbeitet: