Welcome to our Community
Wanting to join the rest of our members? Feel free to sign up today.
Sign up

Monster Girl Doctor | Monster Musume no Oisha-san [Ger-Jap-Dub][Ger-Sub][720p|1080p][E-AC-3|DTS-HD][8bits|10bits][x264|x265|AV1][BluRay] - AO

Azugo

H͓̽u͓̽g͓̽o͓̽ ͓̽&͓̽ ͓̽A͓̽z͓̽u͓̽r͓̽a͓̽
Otaku Gott
Uploader
25 März 2020
3.278
26.426
118


Monster Musume no Oisha-san




14771_300.webp



oie_bchbujbgr3vm-png.30595
anisearch.de schrieb:
In der Stadt Lindworm, in der Monster und Menschen friedlich miteinander leben, betreibt Dr. Glenn mit seiner Assistentin, der Lamia Sapphee, eine vorbildliche medizinische Klinik für Monstermädchen. Ob er nun einen Heiratsantrag eines im Kampf verletzten Zentauren erhält, die Verletzung einer Meerjungfrau behandelt oder die empfindlichen Wunden eines Golems näht, Dr. Glenn erledigt seine Arbeit stets mit Anmut und Zuversicht. Aber wie wird der sonst so unerschütterliche Dr. Glenn reagieren, wenn eine zwielichtige Person versucht, ein Harpyien-Ei zu stehlen?




oie_bchbujbgr3vm1-png.30596


Spieldauer: ~24 min
Genre: Romantische Komödie
Nebengenres: Alltagsleben, Ecchi, Fantasy, Harem, Komödie, Romanze
Sprache:
Deutsch.png
Deutsch,
Japanisch.png
Japanisch
Untertitel:
Deutsch.png
Deutsch,
Deutsch.png
Deutsch (Forced)
Größe pro Folge: ~669mb, ~2020mb, ~1990mb, ~1050mb
Episodenanzahl: 12/12
Format: MKV
Auflösung: 720p (16:9), 1080p (16:9)
Videocodec: H264 (AVC), H265 (HEVC), AV1 (AOM)
Audiocodec: E-AC-3, DTS-HD
Releasegruppe: Anime Otakus
Hoster:
rapidgator-gif.30742
Rapidgator,
ddownload-gif.30720
ddownload


oie_bchbujbgr3vm2-png.30597

Rich (BBCode):
Format                                   : Matroska
Format version                           : Version 4
File size                                : 2.02 GiB
Duration                                 : 23 min 40 s
Overall bit rate mode                    : Variable
Overall bit rate                         : 12.2 Mb/s
Writing application                      : no_variable_data
Writing library                          : no_variable_data
Release by                               : Anime Otakus
Version                                  : 1.2

Video
ID                                       : 1
Format                                   : AVC
Format/Info                              : Advanced Video Codec
Format profile                           : [email protected]
Format settings                          : CABAC / 12 Ref Frames
Format settings, CABAC                   : Yes
Format settings, Reference frames        : 12 frames
Codec ID                                 : V_MPEG4/ISO/AVC
Duration                                 : 23 min 40 s
Bit rate                                 : 10.0 Mb/s
Width                                    : 1 920 pixels
Height                                   : 1 080 pixels
Display aspect ratio                     : 16:9
Frame rate mode                          : Constant
Frame rate                               : 23.976 (24000/1001) FPS
Color space                              : YUV
Chroma subsampling                       : 4:2:0
Bit depth                                : 8 bits
Scan type                                : Progressive
Bits/(Pixel*Frame)                       : 0.202
Stream size                              : 1.66 GiB (82%)
Language                                 : English
Default                                  : No
Forced                                   : No
Color range                              : Limited
Color primaries                          : BT.709
Transfer characteristics                 : BT.709
Matrix coefficients                      : BT.709

Audio #1
ID                                       : 4
Format                                   : DTS XLL
Format/Info                              : Digital Theater Systems
Commercial name                          : DTS-HD Master Audio
Codec ID                                 : A_DTS
Duration                                 : 23 min 40 s
Bit rate mode                            : Variable
Bit rate                                 : 1 089 kb/s
Channel(s)                               : 2 channels
Channel layout                           : L R
Sampling rate                            : 48.0 kHz
Frame rate                               : 93.750 FPS (512 SPF)
Bit depth                                : 16 bits
Compression mode                         : Lossless
Stream size                              : 184 MiB (9%)
Title                                    : Stereo
Language                                 : German
Default                                  : Yes
Forced                                   : No

Audio #2
ID                                       : 5
Format                                   : DTS XLL
Format/Info                              : Digital Theater Systems
Commercial name                          : DTS-HD Master Audio
Codec ID                                 : A_DTS
Duration                                 : 23 min 40 s
Bit rate mode                            : Variable
Bit rate                                 : 1 087 kb/s
Channel(s)                               : 2 channels
Channel layout                           : L R
Sampling rate                            : 48.0 kHz
Frame rate                               : 93.750 FPS (512 SPF)
Bit depth                                : 16 bits
Compression mode                         : Lossless
Stream size                              : 184 MiB (9%)
Title                                    : Stereo
Language                                 : Japanese
Default                                  : No
Forced                                   : No

Text #1
ID                                       : 2
Format                                   : PGS
Muxing mode                              : zlib
Codec ID                                 : S_HDMV/PGS
Codec ID/Info                            : Picture based subtitle format used on BDs/HD-DVDs
Duration                                 : 23 min 2 s
Bit rate                                 : 708 b/s
Frame rate                               : 0.005 FPS
Count of elements                        : 7
Stream size                              : 120 KiB (0%)
Title                                    : German Forced
Language                                 : German
Default                                  : Yes
Forced                                   : No

Text #2
ID                                       : 3
Format                                   : PGS
Muxing mode                              : zlib
Codec ID                                 : S_HDMV/PGS
Codec ID/Info                            : Picture based subtitle format used on BDs/HD-DVDs
Duration                                 : 23 min 37 s
Bit rate                                 : 54.7 kb/s
Frame rate                               : 0.349 FPS
Count of elements                        : 495
Stream size                              : 9.24 MiB (0%)
Title                                    : German Full
Language                                 : German
Default                                  : No
Forced                                   : No

Menu
00:00:00.000                             : :Chapter 01
00:02:15.009                             : :Chapter 02
00:09:01.040                             : :Chapter 03
00:21:45.512                             : :Chapter 04
00:23:35.038                             : :Chapter 05
Rich (BBCode):
Format                                   : Matroska
Format version                           : Version 4
File size                                : 669 MiB
Duration                                 : 23 min 40 s
Overall bit rate                         : 3 949 kb/s
Writing application                      : no_variable_data
Writing library                          : no_variable_data
Release by                               : Anime Otakus
Version                                  : 1.2

Video
ID                                       : 1
Format                                   : AVC
Format/Info                              : Advanced Video Codec
Format profile                           : [email protected]
Format settings                          : CABAC / 8 Ref Frames
Format settings, CABAC                   : Yes
Format settings, Reference frames        : 8 frames
Codec ID                                 : V_MPEG4/ISO/AVC
Duration                                 : 23 min 40 s
Bit rate                                 : 2 591 kb/s
Width                                    : 1 280 pixels
Height                                   : 720 pixels
Display aspect ratio                     : 16:9
Frame rate mode                          : Constant
Frame rate                               : 23.976 (24000/1001) FPS
Color space                              : YUV
Chroma subsampling                       : 4:2:0
Bit depth                                : 8 bits
Scan type                                : Progressive
Bits/(Pixel*Frame)                       : 0.117
Stream size                              : 439 MiB (66%)
Language                                 : English
Default                                  : No
Forced                                   : No
Color range                              : Limited
Color primaries                          : BT.709
Transfer characteristics                 : BT.709
Matrix coefficients                      : BT.709

Audio #1
ID                                       : 4
Format                                   : E-AC-3
Format/Info                              : Enhanced AC-3
Commercial name                          : Dolby Digital Plus
Codec ID                                 : A_EAC3
Duration                                 : 23 min 40 s
Bit rate mode                            : Constant
Bit rate                                 : 640 kb/s
Channel(s)                               : 2 channels
Channel layout                           : L R
Sampling rate                            : 48.0 kHz
Frame rate                               : 31.250 FPS (1536 SPF)
Bit depth                                : 32 bits
Compression mode                         : Lossy
Stream size                              : 108 MiB (16%)
Title                                    : Stereo
Language                                 : German
Service kind                             : Complete Main
Default                                  : Yes
Forced                                   : No

Audio #2
ID                                       : 5
Format                                   : E-AC-3
Format/Info                              : Enhanced AC-3
Commercial name                          : Dolby Digital Plus
Codec ID                                 : A_EAC3
Duration                                 : 23 min 40 s
Bit rate mode                            : Constant
Bit rate                                 : 640 kb/s
Channel(s)                               : 2 channels
Channel layout                           : L R
Sampling rate                            : 48.0 kHz
Frame rate                               : 31.250 FPS (1536 SPF)
Bit depth                                : 32 bits
Compression mode                         : Lossy
Stream size                              : 108 MiB (16%)
Title                                    : Stereo
Language                                 : Japanese
Service kind                             : Complete Main
Default                                  : No
Forced                                   : No

Text #1
ID                                       : 2
Format                                   : PGS
Muxing mode                              : zlib
Codec ID                                 : S_HDMV/PGS
Codec ID/Info                            : Picture based subtitle format used on BDs/HD-DVDs
Title                                    : German Forced
Language                                 : German
Default                                  : Yes
Forced                                   : No

Text #2
ID                                       : 3
Format                                   : PGS
Muxing mode                              : zlib
Codec ID                                 : S_HDMV/PGS
Codec ID/Info                            : Picture based subtitle format used on BDs/HD-DVDs
Title                                    : German Full
Language                                 : German
Default                                  : No
Forced                                   : No

Menu
00:00:00.000                             : :Chapter 01
00:02:15.009                             : :Chapter 02
00:09:01.040                             : :Chapter 03
00:21:45.512                             : :Chapter 04
00:23:35.038                             : :Chapter 05
Rich (BBCode):
Format                                   : Matroska
Format version                           : Version 4
File size                                : 1.99 GiB
Duration                                 : 23 min 40 s
Overall bit rate mode                    : Variable
Overall bit rate                         : 12.0 Mb/s
Writing application                      : no_variable_data
Writing library                          : no_variable_data
Release by                               : Anime Otakus
Version                                  : 1.2

Video
ID                                       : 1
Format                                   : HEVC
Format/Info                              : High Efficiency Video Coding
Format profile                           : Main [email protected]@Main
Codec ID                                 : V_MPEGH/ISO/HEVC
Duration                                 : 23 min 40 s
Width                                    : 1 920 pixels
Height                                   : 1 080 pixels
Display aspect ratio                     : 16:9
Frame rate mode                          : Constant
Frame rate                               : 23.976 (24000/1001) FPS
Color space                              : YUV
Chroma subsampling                       : 4:2:0 (Type 0)
Bit depth                                : 10 bits
Language                                 : English
Default                                  : No
Forced                                   : No
Color range                              : Limited
Color primaries                          : BT.709
Transfer characteristics                 : BT.709
Matrix coefficients                      : BT.709

Audio #1
ID                                       : 4
Format                                   : DTS XLL
Format/Info                              : Digital Theater Systems
Commercial name                          : DTS-HD Master Audio
Codec ID                                 : A_DTS
Duration                                 : 23 min 40 s
Bit rate mode                            : Variable
Channel(s)                               : 2 channels
Channel layout                           : L R
Sampling rate                            : 48.0 kHz
Frame rate                               : 93.750 FPS (512 SPF)
Bit depth                                : 16 bits
Compression mode                         : Lossless
Title                                    : Stereo
Language                                 : German
Default                                  : Yes
Forced                                   : No

Audio #2
ID                                       : 5
Format                                   : DTS XLL
Format/Info                              : Digital Theater Systems
Commercial name                          : DTS-HD Master Audio
Codec ID                                 : A_DTS
Duration                                 : 23 min 40 s
Bit rate mode                            : Variable
Channel(s)                               : 2 channels
Channel layout                           : L R
Sampling rate                            : 48.0 kHz
Frame rate                               : 93.750 FPS (512 SPF)
Bit depth                                : 16 bits
Compression mode                         : Lossless
Title                                    : Stereo
Language                                 : Japanese
Default                                  : No
Forced                                   : No

Text #1
ID                                       : 2
Format                                   : PGS
Muxing mode                              : zlib
Codec ID                                 : S_HDMV/PGS
Codec ID/Info                            : Picture based subtitle format used on BDs/HD-DVDs
Title                                    : German Forced
Language                                 : German
Default                                  : Yes
Forced                                   : No

Text #2
ID                                       : 3
Format                                   : PGS
Muxing mode                              : zlib
Codec ID                                 : S_HDMV/PGS
Codec ID/Info                            : Picture based subtitle format used on BDs/HD-DVDs
Title                                    : German Full
Language                                 : German
Default                                  : No
Forced                                   : No

Menu
00:00:00.000                             : :Chapter 01
00:02:15.009                             : :Chapter 02
00:09:01.040                             : :Chapter 03
00:21:45.512                             : :Chapter 04
00:23:35.038                             : :Chapter 05
Rich (BBCode):
Format                                   : Matroska
Format version                           : Version 4
File size                                : 1.05 GiB
Duration                                 : 23 min 40 s
Overall bit rate mode                    : Variable
Overall bit rate                         : 6 354 kb/s
Writing application                      : no_variable_data
Writing library                          : no_variable_data
Released by                              : Anime Otakus
Version                                  : 1.3

Video
ID                                       : 1
Format                                   : AV1
Format/Info                              : AOMedia Video 1
Format profile                           : [email protected]
Codec ID                                 : V_AV1
Duration                                 : 23 min 40 s
Width                                    : 1 920 pixels
Height                                   : 1 080 pixels
Display aspect ratio                     : 16:9
Frame rate mode                          : Constant
Frame rate                               : 23.976 (24000/1001) FPS
Color space                              : YUV
Chroma subsampling                       : 4:2:0
Bit depth                                : 10 bits
Default                                  : No
Forced                                   : No
Color range                              : Limited
Color primaries                          : BT.709
Transfer characteristics                 : BT.709
Matrix coefficients                      : BT.709

Audio #1
ID                                       : 4
Format                                   : DTS XLL
Format/Info                              : Digital Theater Systems
Commercial name                          : DTS-HD Master Audio
Codec ID                                 : A_DTS
Duration                                 : 23 min 40 s
Bit rate mode                            : Variable
Channel(s)                               : 2 channels
Channel layout                           : L R
Sampling rate                            : 48.0 kHz
Frame rate                               : 93.750 FPS (512 SPF)
Bit depth                                : 16 bits
Compression mode                         : Lossless
Title                                    : Stereo
Language                                 : German
Default                                  : Yes
Forced                                   : No

Audio #2
ID                                       : 5
Format                                   : DTS XLL
Format/Info                              : Digital Theater Systems
Commercial name                          : DTS-HD Master Audio
Codec ID                                 : A_DTS
Duration                                 : 23 min 40 s
Bit rate mode                            : Variable
Channel(s)                               : 2 channels
Channel layout                           : L R
Sampling rate                            : 48.0 kHz
Frame rate                               : 93.750 FPS (512 SPF)
Bit depth                                : 16 bits
Compression mode                         : Lossless
Title                                    : Stereo
Language                                 : Japanese
Default                                  : No
Forced                                   : No

Text #1
ID                                       : 2
Format                                   : PGS
Muxing mode                              : zlib
Codec ID                                 : S_HDMV/PGS
Codec ID/Info                            : Picture based subtitle format used on BDs/HD-DVDs
Title                                    : German Forced
Language                                 : German
Default                                  : Yes
Forced                                   : No

Text #2
ID                                       : 3
Format                                   : PGS
Muxing mode                              : zlib
Codec ID                                 : S_HDMV/PGS
Codec ID/Info                            : Picture based subtitle format used on BDs/HD-DVDs
Title                                    : German Full
Language                                 : German
Default                                  : No
Forced                                   : No

Menu
00:00:00.000                             : :Chapter 01
00:02:15.009                             : :Chapter 02
00:09:01.040                             : :Chapter 03
00:21:45.512                             : :Chapter 04
00:23:35.038                             : :Chapter 05



oie_bchbujbgr3vm3-png.30598

cooltext396117611400625-png.30739

EE45C15062.png

0AE8D52CE4.png

930DF8FB72.png

31ABD9F201.png

cooltext3961176114006251-png.30741

3F8D5ADE17.png

4E7E50BAD5.png

9859A049F8.png

2505F31A8B.png


To view the content, you need to Sign In or Register.

 
Zuletzt bearbeitet:

Azugo

H͓̽u͓̽g͓̽o͓̽ ͓̽&͓̽ ͓̽A͓̽z͓̽u͓̽r͓̽a͓̽
Otaku Gott
Uploader
25 März 2020
3.278
26.426
118
(っ◔◡◔)っ ♥ Vol. 2 (E07-E12) online. Anime abgeschlossen. Viel Spaß ♥
 
  • Like
Reaktionen: Tequila