1. Aktuell funktioniert unser Image Proxy nicht mehr ordnungsgemäß, sodass keine Bilder mehr angezeigt werden. Wir kümmern uns darum!

Wir verwenden Cookies, um deinen Aufenthalt auf Animes.so möglichst angenehm gestalten zu können. Mehr erfahren

Monster Girl Doctor | Monster Musume no Oisha-san [Jap-Dub][Ger-Sub][720p|1080pPlus][WebRip] - AoD

Dieses Thema im Forum "Anime Serien (Deutsche Untertitel)" wurde erstellt von Azugo, 12. Juli 2020.

  1. Azugo
    Azugo

    H͓̽u͓̽g͓̽o͓̽ ͓̽&͓̽ ͓̽A͓̽z͓̽u͓̽r͓̽a͓̽ Seelenverkäufer Uploader

    Registriert seit:
    25. März 2020
    Beiträge:
    406
    Zustimmungen:
    4.689

    Monster Girl Doctor | Monster Musume no Oisha-san



    [​IMG]


    [​IMG]

    [​IMG]

    Spieldauer: ~23min
    Genre: Romantische Komödie
    Nebengenres: Alltagsleben, Ecchi, Fantasy, Komödie, Romanze
    Jahr: 2020
    Sprache: Japanisch
    Untertitel: Deutsch
    Größe pro Folge:~252mb, ~1010mb
    Episodenanzahl: 12/12
    Format: MKV
    Auflösung: 1080p (16:9)
    Videocodec: H264 (AVC)
    Audiocodec: AAC
    Releasegruppe: Hugo
    Hoster: ddownload, uploaded

    [​IMG]
    Code:
    Format                                   : Matroska
    Format version                           : Version 4
    File size                                : 252 MiB
    Duration                                 : 23 min 40 s
    Overall bit rate                         : 1 491 kb/s
    Encoded date                             : UTC 2021-04-03 12:15:02
    Writing application                      : mkvmerge v55.0.0 ('Waiting For Space') 64-bit
    Writing library                          : libebml v1.4.2 + libmatroska v1.6.4
    
    Video
    ID                                       : 1
    Format                                   : AVC
    Format/Info                              : Advanced Video Codec
    Format profile                           : High@L4
    Format settings                          : CABAC / 9 Ref Frames
    Format settings, CABAC                   : Yes
    Format settings, Reference frames        : 9 frames
    Codec ID                                 : V_MPEG4/ISO/AVC
    Duration                                 : 23 min 40 s
    Bit rate                                 : 1 233 kb/s
    Width                                    : 1 280 pixels
    Height                                   : 720 pixels
    Display aspect ratio                     : 16:9
    Frame rate mode                          : Constant
    Frame rate                               : 23.976 (24000/1001) FPS
    Color space                              : YUV
    Chroma subsampling                       : 4:2:0
    Bit depth                                : 8 bits
    Scan type                                : Progressive
    Bits/(Pixel*Frame)                       : 0.056
    Stream size                              : 209 MiB (83%)
    Writing library                          : x264 core 157 r2969 d4099dd
    Encoding settings                        : cabac=1 / ref=9 / deblock=1:0:-1 / analyse=0x3:0x133 / me=umh / subme=10 / psy=1 / psy_rd=0.60:0.10 / mixed_ref=1 / me_range=24 / chroma_me=1 / trellis=2 / 8x8dct=1 / cqm=0 / deadzone=21,11 / fast_pskip=1 / chroma_qp_offset=-3 / threads=12 / lookahead_threads=3 / sliced_threads=0 / nr=0 / decimate=0 / interlaced=0 / bluray_compat=0 / constrained_intra=0 / bframes=16 / b_pyramid=2 / b_adapt=2 / b_bias=0 / direct=3 / weightb=1 / open_gop=0 / weightp=2 / keyint=192 / keyint_min=19 / scenecut=0 / intra_refresh=0 / rc_lookahead=80 / rc=crf / mbtree=1 / crf=17.0 / qcomp=0.60 / qpmin=0 / qpmax=69 / qpstep=4 / vbv_maxrate=4096 / vbv_bufsize=10240 / crf_max=0.0 / nal_hrd=none / filler=0 / ip_ratio=1.40 / aq=3:1.10
    Default                                  : Yes
    Forced                                   : No
    
    Audio
    ID                                       : 2
    Format                                   : AAC LC
    Format/Info                              : Advanced Audio Codec Low Complexity
    Codec ID                                 : A_AAC-2
    Duration                                 : 23 min 40 s
    Bit rate                                 : 256 kb/s
    Channel(s)                               : 2 channels
    Channel layout                           : L R
    Sampling rate                            : 48.0 kHz
    Frame rate                               : 46.875 FPS (1024 SPF)
    Compression mode                         : Lossy
    Delay relative to video                  : -83 ms
    Stream size                              : 43.3 MiB (17%)
    Default                                  : Yes
    Forced                                   : No
    
    
    Code:
    Format                                   : Matroska
    Format version                           : Version 4
    File size                                : 1 009 MiB
    Duration                                 : 23 min 40 s
    Overall bit rate                         : 5 961 kb/s
    Encoded date                             : UTC 2021-04-03 12:09:21
    Writing application                      : mkvmerge v55.0.0 ('Waiting For Space') 64-bit
    Writing library                          : libebml v1.4.2 + libmatroska v1.6.4
    
    Video
    ID                                       : 1
    Format                                   : AVC
    Format/Info                              : Advanced Video Codec
    Format profile                           : High@L5
    Format settings                          : CABAC / 12 Ref Frames
    Format settings, CABAC                   : Yes
    Format settings, Reference frames        : 12 frames
    Codec ID                                 : V_MPEG4/ISO/AVC
    Duration                                 : 23 min 40 s
    Bit rate                                 : 5 703 kb/s
    Width                                    : 1 920 pixels
    Height                                   : 1 080 pixels
    Display aspect ratio                     : 16:9
    Frame rate mode                          : Constant
    Frame rate                               : 23.976 (24000/1001) FPS
    Color space                              : YUV
    Chroma subsampling                       : 4:2:0
    Bit depth                                : 8 bits
    Scan type                                : Progressive
    Bits/(Pixel*Frame)                       : 0.115
    Stream size                              : 965 MiB (96%)
    Writing library                          : x264 core 157 r2969 d4099dd
    Encoding settings                        : cabac=1 / ref=12 / deblock=1:0:-1 / analyse=0x3:0x133 / me=umh / subme=10 / psy=1 / psy_rd=0.70:0.15 / mixed_ref=1 / me_range=24 / chroma_me=1 / trellis=2 / 8x8dct=1 / cqm=0 / deadzone=21,11 / fast_pskip=1 / chroma_qp_offset=-3 / threads=24 / lookahead_threads=6 / sliced_threads=0 / nr=0 / decimate=0 / interlaced=0 / bluray_compat=0 / constrained_intra=0 / bframes=16 / b_pyramid=2 / b_adapt=2 / b_bias=0 / direct=3 / weightb=1 / open_gop=0 / weightp=2 / keyint=192 / keyint_min=19 / scenecut=0 / intra_refresh=0 / rc_lookahead=80 / rc=crf / mbtree=1 / crf=15.0 / qcomp=0.60 / qpmin=0 / qpmax=69 / qpstep=4 / vbv_maxrate=20480 / vbv_bufsize=40960 / crf_max=0.0 / nal_hrd=none / filler=0 / ip_ratio=1.40 / aq=3:1.10
    Default                                  : Yes
    Forced                                   : No
    
    Audio
    ID                                       : 2
    Format                                   : AAC LC
    Format/Info                              : Advanced Audio Codec Low Complexity
    Codec ID                                 : A_AAC-2
    Duration                                 : 23 min 40 s
    Bit rate                                 : 256 kb/s
    Channel(s)                               : 2 channels
    Channel layout                           : L R
    Sampling rate                            : 48.0 kHz
    Frame rate                               : 46.875 FPS (1024 SPF)
    Compression mode                         : Lossy
    Delay relative to video                  : -83 ms
    Stream size                              : 43.3 MiB (4%)
    Default                                  : Yes
    Forced                                   : No
    
    




    Status: 720p [​IMG] 1080p [​IMG]
    Geschützter Bereich
    Registriere dich oder logge dich ein, um den Inhalt sehen zu können
     
    Zuletzt bearbeitet: 3. Apr. 2021
    Spirit, Vagabund, Jeycop und 34 anderen gefällt das.
  2. Azugo
    Azugo

    H͓̽u͓̽g͓̽o͓̽ ͓̽&͓̽ ͓̽A͓̽z͓̽u͓̽r͓̽a͓̽ Seelenverkäufer Uploader

    Registriert seit:
    25. März 2020
    Beiträge:
    406
    Zustimmungen:
    4.689
    Reup done.
    720p hinzugefügt.
     
    Mafuyo gefällt das.

Diese Seite empfehlen