Welcome to our Community
Wanting to join the rest of our members? Feel free to sign up today.
Sign up

More than a Married Couple, but Not Lovers. [Ger-Jap-Dub][Ger-Eng-Sub][1080p][x264][WebDL] - Crunchyroll

Kleinmike

Uploader
Otaku König
21 März 2021
205
2.692
93
More than a Married Couple, but Not Lovers
夫婦以上、恋人未満。 | Fuufu Ijou, Koibito Miman.

16815_300.webp


Beschreibung:
An Jirou Yakuins Schule gibt es ein besonderes Training, das die Schüler im letzten Jahr durchlaufen müssen und das sie auf ihr späteres Leben vorbereiten soll: Durch ein Zufallsprinzip werden Paare gebildet, die von nun an wie ein Ehepaar zusammenleben sollen. Die Schüler müssen unter den wachsamen Linsen der Überwachungskameras verschiedene Aufgaben bewältigen und Punkte sammeln, um die Prüfung am Ende zu bestehen.

Eigentlich hatte Jirou gehofft, mit seinem heimlichen Schwarm Shiori Sakurazaka ein Team zu bilden, stattdessen gerät der zurückhaltende Schüler jedoch an Akari Watanabe, deren Charakter vollkommen gegensätzlich zu seinem ist. Diese wiederum würde sich lieber mit Minami Tenjin zusammentun, in den sie verliebt ist. Als dann auch noch Shiori und Minami als Paar ausgelost werden, scheint der Traum der beiden in weite Ferne zu rücken.

Doch ganz ausweglos ist ihre Situation nicht, denn die zehn höchstplatzierten Paare ihres Jahrgangs bekommen die Möglichkeit, noch einmal ihre Partner zu wechseln. Wird es Jirou und Akari gelingen, ihr Ziel zu erreichen, oder lassen sie sich von unerwarteten Komplikationen ablenken?
Quelle: anisearch

Episoden: 02/12
Größe: ~1400MB
Sprache: Japanisch | Deutsch | English
Untertitel: Deutsch | Englisch
Jahr: 2022
Genres: Romantische Komödie, Alltagsleben, Drama, Ecchi
Auflösung: 1920x1080
Format: MKV
Videocodec: AVC
Farbtiefe: 8bit
Audiocodec: AAC LC
Publisher: Crunchyroll
Hoster: DDownload | Uploaded

Mediainfo:
Code:
Format                                   : Matroska
Format version                           : Version 4
File size                                : 1.42 GiB
Duration                                 : 24 min 10 s
Overall bit rate                         : 8 380 kb/s
Encoded date                             : UTC 2022-11-06 20:46:49
Writing application                      : mkvmerge v70.0.0 ('Caught A Lite Sneeze') 64-bit
Writing library                          : libebml v1.4.2 + libmatroska v1.6.4

Video
ID                                       : 1
Format                                   : AVC
Format/Info                              : Advanced Video Codec
Format profile                           : [email protected]
Format settings                          : CABAC / 4 Ref Frames
Format settings, CABAC                   : Yes
Format settings, Reference frames        : 4 frames
Format settings, GOP                     : N=1
Codec ID                                 : V_MPEG4/ISO/AVC
Duration                                 : 24 min 10 s
Bit rate                                 : 8 000 kb/s
Width                                    : 1 920 pixels
Height                                   : 1 080 pixels
Display aspect ratio                     : 16:9
Frame rate mode                          : Constant
Frame rate                               : 23.976 (24000/1001) FPS
Color space                              : YUV
Chroma subsampling                       : 4:2:0
Bit depth                                : 8 bits
Scan type                                : Progressive
Bits/(Pixel*Frame)                       : 0.161
Stream size                              : 1.35 GiB (95%)
Writing library                          : x264 core 142
Encoding settings                        : cabac=1 / ref=4 / deblock=1:1:1 / analyse=0x3:0x113 / me=umh / subme=8 / psy=1 / psy_rd=0.40:0.00 / mixed_ref=1 / me_range=16 / chroma_me=1 / trellis=1 / 8x8dct=1 / cqm=0 / deadzone=21,11 / fast_pskip=1 / chroma_qp_offset=-2 / threads=12 / lookahead_threads=2 / sliced_threads=0 / nr=0 / decimate=1 / interlaced=0 / bluray_compat=0 / constrained_intra=0 / bframes=0 / weightp=2 / keyint=96 / keyint_min=48 / scenecut=40 / intra_refresh=0 / rc_lookahead=48 / rc=2pass / mbtree=1 / bitrate=8000 / ratetol=1.0 / qcomp=0.60 / qpmin=0 / qpmax=69 / qpstep=4 / cplxblur=20.0 / qblur=0.5 / vbv_maxrate=12000 / vbv_bufsize=18000 / nal_hrd=none / filler=0 / ip_ratio=1.40 / aq=1:0.60
Default                                  : Yes
Forced                                   : No

Audio #1
ID                                       : 2
Format                                   : AAC LC
Format/Info                              : Advanced Audio Codec Low Complexity
Codec ID                                 : A_AAC-2
Duration                                 : 24 min 10 s
Bit rate                                 : 128 kb/s
Channel(s)                               : 2 channels
Channel layout                           : L R
Sampling rate                            : 44.1 kHz
Frame rate                               : 43.066 FPS (1024 SPF)
Compression mode                         : Lossy
Stream size                              : 22.1 MiB (2%)
Language                                 : German
Default                                  : Yes
Forced                                   : No

Audio #2
ID                                       : 3
Format                                   : AAC LC
Format/Info                              : Advanced Audio Codec Low Complexity
Codec ID                                 : A_AAC-2
Duration                                 : 24 min 10 s
Bit rate                                 : 128 kb/s
Channel(s)                               : 2 channels
Channel layout                           : L R
Sampling rate                            : 44.1 kHz
Frame rate                               : 43.066 FPS (1024 SPF)
Compression mode                         : Lossy
Stream size                              : 22.1 MiB (2%)
Language                                 : Japanese
Default                                  : No
Forced                                   : No

Audio #3
ID                                       : 4
Format                                   : AAC LC
Format/Info                              : Advanced Audio Codec Low Complexity
Codec ID                                 : A_AAC-2
Duration                                 : 24 min 10 s
Bit rate                                 : 128 kb/s
Channel(s)                               : 2 channels
Channel layout                           : L R
Sampling rate                            : 44.1 kHz
Frame rate                               : 43.066 FPS (1024 SPF)
Compression mode                         : Lossy
Stream size                              : 22.1 MiB (2%)
Language                                 : English
Default                                  : No
Forced                                   : No

Text #1
ID                                       : 5
Format                                   : ASS
Codec ID                                 : S_TEXT/ASS
Codec ID/Info                            : Advanced Sub Station Alpha
Duration                                 : 23 min 34 s
Bit rate                                 : 185 b/s
Frame rate                               : 0.290 FPS
Count of elements                        : 411
Compression mode                         : Lossless
Stream size                              : 32.0 KiB (0%)
Title                                    : German Full
Language                                 : German
Default                                  : No
Forced                                   : No

Text #2
ID                                       : 6
Format                                   : ASS
Codec ID                                 : S_TEXT/ASS
Codec ID/Info                            : Advanced Sub Station Alpha
Duration                                 : 22 min 48 s
Bit rate                                 : 31 b/s
Frame rate                               : 0.023 FPS
Count of elements                        : 32
Compression mode                         : Lossless
Stream size                              : 5.32 KiB (0%)
Title                                    : German Forced
Language                                 : German
Default                                  : Yes
Forced                                   : No

Text #3
ID                                       : 7
Format                                   : ASS
Codec ID                                 : S_TEXT/ASS
Codec ID/Info                            : Advanced Sub Station Alpha
Duration                                 : 24 min 3 s
Bit rate                                 : 78 b/s
Frame rate                               : 0.072 FPS
Count of elements                        : 104
Compression mode                         : Lossless
Stream size                              : 13.9 KiB (0%)
Title                                    : English Full
Language                                 : English
Default                                  : No
Forced                                   : No

Text #4
ID                                       : 8
Format                                   : ASS
Codec ID                                 : S_TEXT/ASS
Codec ID/Info                            : Advanced Sub Station Alpha
Duration                                 : 24 min 3 s
Bit rate                                 : 246 b/s
Frame rate                               : 0.383 FPS
Count of elements                        : 553
Compression mode                         : Lossless
Stream size                              : 43.4 KiB (0%)
Title                                    : English Forced
Language                                 : English
Default                                  : No
Forced                                   : No

Status:
1080p:
6BA37EDC59.png


To view the content, you need to Sign In or Register.