Wir verwenden Cookies, um deinen Aufenthalt auf Animes.so möglichst angenehm gestalten zu können. Mehr erfahren

Nande Koko ni Sensei ga!? | Why the Hell are You Here, Teacher!? [Jap-Dub][Ger-Sub][720p|1080p Plus][WebRip] - AoD

Dieses Thema im Forum "Download Archiv" wurde erstellt von Ta@, 18. Apr. 2019.

  1. Ta@

    Ta@ Erfahrener Otaku Otaku König

    Registriert seit:
    7. Juli 2016
    Beiträge:
    219
    Zustimmungen:
    18.439
    Nande Koko ni Sensei ga!?
    Why the Hell are You Here, Teacher!?
    Why Are You Here Sensei!?, Golden Times

    [​IMG]
    [​IMG]

    Nande Koko ni Sensei ga!?, die Anime-Adaption zu Soborous gleichnamigem Manga, dreht sich um den Oberschüler Ichirou Satou. Dieser ist ein echter Pechvogel – egal, wohin er geht, überall trifft er auf seine superstrenge Lehrerin Kana Kojima. Die hat ihren Beinamen „Kojima, die Teufelin“ auch nicht nur zum Spaß abbekommen, macht sie doch selbst mit den schlimmsten Delinquenten kurzen Prozess und wird von der ganzen Schülerschaft gefürchtet. Ihr höllisch strenges Auftreten ist allerdings nicht das Einzige, was sie zur Teufelin macht, denn sie sieht zudem auch noch teuflisch gut aus!

    Folgen: 3/12
    Größe pro Folge: ~145 MB/~525 MB
    Folgendauer: ~12 Min
    Releaser: Ta@
    Art: Lizenzrelease
    Sprache: Japanisch
    Untertitel: Deutsch
    Jahr: 2019
    Genres: Komödie, Ecchi, Romanze
    Auflösung: 1280x720/1920x1080
    Format: MKV
    Quelle: WebRip
    Videocodec: x264
    Farbtiefe: 8Bit
    Audiocodec: AAC
    Publisher: Anime-on-Demand
    Hoster: Share-Online

    [​IMG]
    Code:
    General Complete name : [Ta@]Why_the_Hell_are_You_Here,_Teacher_01_[Web,720p,AAC].mkv Format : Matroska Format version : Version 4 File size : 145 MiB Duration : 11 min 31 s Overall bit rate : 1 757 kb/s Encoded date : UTC 2019-04-17 14:47:18 Writing application : mkvmerge v10.0.0 ('To Drown In You') 64bit Writing library : libebml v1.3.4 + libmatroska v1.4.5 Attachments : font.ttf Video ID : 1 Format : AVC Format/Info : Advanced Video Codec Format profile : High@L4 Format settings : CABAC / 9 Ref Frames Format settings, CABAC : Yes Format settings, RefFrames : 9 frames Codec ID : V_MPEG4/ISO/AVC Duration : 11 min 31 s Bit rate : 1 497 kb/s Width : 1 280 pixels Height : 720 pixels Display aspect ratio : 16:9 Frame rate mode : Constant Frame rate : 23.976 (24000/1001) FPS Color space : YUV Chroma subsampling : 4:2:0 Bit depth : 8 bits Scan type : Progressive Bits/(Pixel*Frame) : 0.068 Stream size : 123 MiB (85%) Writing library : x264 core 157 r2969 d4099dd Encoding settings : cabac=1 / ref=9 / deblock=1:0:-1 / analyse=0x3:0x133 / me=umh / subme=10 / psy=1 / psy_rd=0.60:0.10 / mixed_ref=1 / me_range=24 / chroma_me=1 / trellis=2 / 8x8dct=1 / cqm=0 / deadzone=21,11 / fast_pskip=1 / chroma_qp_offset=-3 / threads=12 / lookahead_threads=3 / sliced_threads=0 / nr=0 / decimate=0 / interlaced=0 / bluray_compat=0 / constrained_intra=0 / bframes=16 / b_pyramid=2 / b_adapt=2 / b_bias=0 / direct=3 / weightb=1 / open_gop=0 / weightp=2 / keyint=192 / keyint_min=19 / scenecut=0 / intra_refresh=0 / rc_lookahead=80 / rc=crf / mbtree=1 / crf=17.0 / qcomp=0.60 / qpmin=0 / qpmax=69 / qpstep=4 / vbv_maxrate=4096 / vbv_bufsize=10240 / crf_max=0.0 / nal_hrd=none / filler=0 / ip_ratio=1.40 / aq=3:1.10 Default : Yes Forced : No Audio ID : 2 Format : AAC LC Format/Info : Advanced Audio Codec Low Complexity Codec ID : A_AAC-2 Duration : 11 min 31 s Bit rate : 256 kb/s Channel(s) : 2 channels Channel layout : L R Sampling rate : 48.0 kHz Frame rate : 46.875 FPS (1024 SPF) Compression mode : Lossy Delay relative to video : -83 ms Stream size : 21.1 MiB (15%) Default : Yes Forced : No ​
    Code:
    General Complete name : [Ta@]Why_the_Hell_are_You_Here,_Teacher_01_[Web,1080pPlus,AAC].mkv Format : Matroska Format version : Version 4 File size : 523 MiB Duration : 11 min 31 s Overall bit rate : 6 340 kb/s Encoded date : UTC 2019-04-17 14:44:05 Writing application : mkvmerge v31.0.0 ('Dolores In A Shoestand') 64-bit Writing library : libebml v1.3.6 + libmatroska v1.4.9 Video ID : 1 Format : AVC Format/Info : Advanced Video Codec Format profile : High@L5 Format settings : CABAC / 12 Ref Frames Format settings, CABAC : Yes Format settings, RefFrames : 12 frames Codec ID : V_MPEG4/ISO/AVC Duration : 11 min 31 s Bit rate : 6 083 kb/s Width : 1 920 pixels Height : 1 080 pixels Display aspect ratio : 16:9 Frame rate mode : Constant Frame rate : 23.976 (24000/1001) FPS Color space : YUV Chroma subsampling : 4:2:0 Bit depth : 8 bits Scan type : Progressive Bits/(Pixel*Frame) : 0.122 Stream size : 502 MiB (96%) Writing library : x264 core 157 r2969 d4099dd Encoding settings : cabac=1 / ref=12 / deblock=1:0:-1 / analyse=0x3:0x133 / me=umh / subme=10 / psy=1 / psy_rd=0.70:0.15 / mixed_ref=1 / me_range=24 / chroma_me=1 / trellis=2 / 8x8dct=1 / cqm=0 / deadzone=21,11 / fast_pskip=1 / chroma_qp_offset=-3 / threads=24 / lookahead_threads=6 / sliced_threads=0 / nr=0 / decimate=0 / interlaced=0 / bluray_compat=0 / constrained_intra=0 / bframes=16 / b_pyramid=2 / b_adapt=2 / b_bias=0 / direct=3 / weightb=1 / open_gop=0 / weightp=2 / keyint=192 / keyint_min=19 / scenecut=0 / intra_refresh=0 / rc_lookahead=80 / rc=crf / mbtree=1 / crf=15.0 / qcomp=0.60 / qpmin=0 / qpmax=69 / qpstep=4 / vbv_maxrate=20480 / vbv_bufsize=40960 / crf_max=0.0 / nal_hrd=none / filler=0 / ip_ratio=1.40 / aq=3:1.10 Default : Yes Forced : No Audio ID : 2 Format : AAC LC Format/Info : Advanced Audio Codec Low Complexity Codec ID : A_AAC-2 Duration : 11 min 31 s Bit rate : 256 kb/s Channel(s) : 2 channels Channel layout : L R Sampling rate : 48.0 kHz Frame rate : 46.875 FPS (1024 SPF) Compression mode : Lossy Delay relative to video : -83 ms Stream size : 21.1 MiB (4%) Default : Yes Forced : No ​

    Anmerkung:
    Die Untertitel sind im Video eingebrannt.

    720p:[​IMG]1080p:[​IMG]

    Geschützter Bereich
    Registriere dich oder logge dich ein, um den Inhalt sehen zu können
     
    Zuletzt bearbeitet: 2. Mai 2019
    Coolwars, GiftGasBaer, Cande und 42 anderen gefällt das.

Diese Seite empfehlen