1. Die erweiterte Suche funktioniert wieder. Die LiveSearch ist vorübergehend deaktiviert

Wir verwenden Cookies, um deinen Aufenthalt auf Animes.so möglichst angenehm gestalten zu können. Mehr erfahren

Naruto Shippuuden 001 - 175 & 290 - 469 | Naruto Shippuden 001 - 175 & 290 - 469 [Ger-Jap-Dub][Ger-Sub][AAC|AC-3|DTS-HD][404p|720p|1080p][BluRay] - Fuuko

Dieses Thema im Forum "Serien (GerDub)" wurde erstellt von Fuuko, 4. Sep. 2018.

  1. Fuuko

    Fuuko Freigeschalteter Otaku Otaku Novize

    Registriert seit:
    19. Sep. 2018
    Beiträge:
    39
    Zustimmungen:
    1.029
    Naruto Shippuden
    E001 - 175 & E290 - 469
    S01 - 08 & S14 - 23 + Chikara Special

    [​IMG]
    [​IMG]
    Gefangen in der Traumwelt erhält Tsunade ein neu geschriebenes Buch von Jiraiya - "Die Geschichte des Helden Naruto" erzählt eben diese. Es ist eine alternative Erzählung von Narutos Geschichte. Hier ist alles etwas anders, aber doch gleich. Zwar leben Narutos Eltern noch und Minato ist nach wie vor der Hokage, aber ein Teil des Kyubi ist dennoch in Naruto versiegelt. Aufgrund dessen wird er von allen gemieden, aber Naruto lässt sich davon nicht irritieren und kämpft um die Anerkennung der Dorfbewohner. Doch plötzlich verschwinden alle erfahrenen Jonin aus Konoha und die jungen Genin sind verwirrt und verzweifelt. Jetzt sieht Naruto seine Chance gekommen, um sich endlich zu beweisen.

    Drei Jahre sind vergangen seitdem Naruto das Dorf verließ, um mit Jiraiya zu trainieren. Sasuke ist in dieser Zeit zum Vize-Kommandanten des Konoha-Polizeitrupps geworden und setzt die Einhaltung der Regeln und Gesetze eisern durch. Doch als er nach einem Zwischenfall mit Naruto entlassen wird, verlässt er auf der Suche nach Macht das Dorf und findet sie bei Orochimaru. Zwar will Naruto ihn noch aufhalten, aber es gelingt ihm nicht und es kommt erneut zum Kampf zwischen den Rivalen. Unterdessen taucht Pain in Konoha auf und droht das Dorf und alle seine Bewohner zu vernichten …
    [​IMG]
    Episoden: 355 / 500
    Spieldauer: 24 Min.
    Source: BluRay
    Release by: Fuuko
    Format: mkv
    Sprache: Deutsch | Japanisch
    Untertitel: Deutsch (Forced) | Deutsch (Full)
    Auflösung: 404p | 720p | 1080p
    Größe: 200MB | 600MB | 1700MB
    Parts: je 1000 MB
    Code:
    Format                      : Matroska
    Format version              : Version 4 / Version 2
    File size                   : 205 MiB
    Duration                    : 23mn 5s
    Overall bit rate            : 1 244 Kbps
    Movie name                  : Naruto.Shippuden.E432.German.DL.BDRiP.x264-Fuuko
    Encoded date                : UTC 2018-09-02 20:00:37
    Writing application         : mkvmerge v26.0.0 ('In The Game') 64-bit
    Writing library             : libebml v1.3.6 + libmatroska v1.4.9
    
    Video
    ID                          : 1
    Format                      : AVC
    Format/Info                 : Advanced Video Codec
    Format profile              : High@L4.1
    Format settings, CABAC      : Yes
    Format settings, ReFrames   : 3 frames
    Codec ID                    : V_MPEG4/ISO/AVC
    Duration                    : 23mn 3s
    Bit rate                    : 983 Kbps
    Width                       : 720 pixels
    Height                      : 404 pixels
    Display aspect ratio        : 16:9
    Frame rate mode             : Constant
    Frame rate                  : 23.976 (24000/1001) fps
    Color space                 : YUV
    Chroma subsampling          : 4:2:0
    Bit depth                   : 8 bits
    Scan type                   : Progressive
    Bits/(Pixel*Frame)          : 0.141
    Stream size                 : 162 MiB (79%)
    Writing library             : x264 core 148
    Encoding settings           : cabac=1 / ref=3 / deblock=1:-1:-1 / analyse=0x3:0 / me=hex / subme=5 / psy=1 / psy_rd=1.00:0.00 / mixed_ref=0 / me_range=16 / chroma_me=1 / trellis=1 / 8x8dct=1 / cqm=0 / deadzone=21,11 / fast_pskip=0 / chroma_qp_offset=0 / threads=16 / lookahead_threads=3 / sliced_threads=0 / nr=0 / decimate=1 / interlaced=0 / bluray_compat=0 / constrained_intra=0 / bframes=2 / b_pyramid=0 / b_adapt=1 / b_bias=0 / direct=1 / weightb=0 / open_gop=0 / weightp=0 / keyint=24 / keyint_min=2 / scenecut=40 / intra_refresh=0 / rc=crf / mbtree=0 / crf=19.0 / qcomp=0.60 / qpmin=0 / qpmax=69 / qpstep=4 / ip_ratio=1.40 / pb_ratio=1.30 / aq=1:1.00
    Default                     : Yes
    Forced                      : No
    Color range                 : Limited
    Color primaries             : BT.601 NTSC
    Transfer characteristics    : BT.709
    Matrix coefficients         : BT.601
    
    Audio #1
    ID                          : 2
    Format                      : AAC
    Format/Info                 : Advanced Audio Codec
    Format profile              : LC
    Codec ID                    : A_AAC
    Duration                    : 23mn 5s
    Bit rate                    : 125 Kbps
    Channel(s)                  : 2 channels
    Channel positions           : Front: L R
    Sampling rate               : 48.0 KHz
    Frame rate                  : 46.875 fps (1024 spf)
    Compression mode            : Lossy
    Stream size                 : 20.7 MiB (10%)
    Language                    : German
    Default                     : Yes
    Forced                      : No
    
    Audio #2
    ID                          : 3
    Format                      : AAC
    Format/Info                 : Advanced Audio Codec
    Format profile              : LC
    Codec ID                    : A_AAC
    Duration                    : 23mn 5s
    Bit rate                    : 125 Kbps
    Channel(s)                  : 2 channels
    Channel positions           : Front: L R
    Sampling rate               : 48.0 KHz
    Frame rate                  : 46.875 fps (1024 spf)
    Compression mode            : Lossy
    Stream size                 : 20.7 MiB (10%)
    Language                    : Japanese
    Default                     : No
    Forced                      : No
    
    Text #1
    ID                          : 4
    Format                      : PGS
    Muxing mode                 : zlib
    Codec ID                    : S_HDMV/PGS
    Codec ID/Info               : Picture based subtitle format used on BDs/HD-DVDs
    Duration                    : 22mn 17s
    Bit rate                    : 1 063 bps
    Count of elements           : 70
    Stream size                 : 174 KiB (0%)
    Language                    : German
    Default                     : No
    Forced                      : No
    
    Text #2
    ID                          : 5
    Format                      : PGS
    Muxing mode                 : zlib
    Codec ID                    : S_HDMV/PGS
    Codec ID/Info               : Picture based subtitle format used on BDs/HD-DVDs
    Duration                    : 22mn 49s
    Bit rate                    : 8 873 bps
    Count of elements           : 552
    Stream size                 : 1.45 MiB (1%)
    Language                    : German
    Default                     : No
    Forced                      : No
    
    Menu
    00:00:00.000                : en:(01)00:00:00:000
    00:01:30.298                : en:(02)00:01:30:298
    00:13:41.695                : en:(03)00:13:41:695
    00:21:04.012                : en:(04)00:21:04:012
    00:22:33.894                : en:(05)00:22:33:894
    00:23:04.925                : en:(06)00:23:04:925
    Code:
    Format                      : Matroska
    Format version              : Version 4 / Version 2
    File size                   : 586 MiB
    Duration                    : 23mn 4s
    Overall bit rate            : 3 552 Kbps
    Movie name                  : Naruto.Shippuden.E432.German.DL.720p.BluRay.x264-Fuuko
    Encoded date                : UTC 2018-09-02 19:59:58
    Writing application         : mkvmerge v26.0.0 ('In The Game') 64-bit
    Writing library             : libebml v1.3.6 + libmatroska v1.4.9
    
    Video
    ID                          : 1
    Format                      : AVC
    Format/Info                 : Advanced Video Codec
    Format profile              : High@L4.1
    Format settings, CABAC      : Yes
    Format settings, ReFrames   : 3 frames
    Codec ID                    : V_MPEG4/ISO/AVC
    Duration                    : 23mn 3s
    Bit rate                    : 2 639 Kbps
    Width                       : 1 280 pixels
    Height                      : 720 pixels
    Display aspect ratio        : 16:9
    Frame rate mode             : Constant
    Frame rate                  : 23.976 (24000/1001) fps
    Color space                 : YUV
    Chroma subsampling          : 4:2:0
    Bit depth                   : 8 bits
    Scan type                   : Progressive
    Bits/(Pixel*Frame)          : 0.119
    Stream size                 : 435 MiB (74%)
    Writing library             : x264 core 148
    Encoding settings           : cabac=1 / ref=3 / deblock=1:-1:-1 / analyse=0x3:0 / me=hex / subme=5 / psy=1 / psy_rd=1.00:0.00 / mixed_ref=0 / me_range=16 / chroma_me=1 / trellis=1 / 8x8dct=1 / cqm=0 / deadzone=21,11 / fast_pskip=0 / chroma_qp_offset=0 / threads=16 / lookahead_threads=4 / sliced_threads=0 / nr=0 / decimate=1 / interlaced=0 / bluray_compat=0 / constrained_intra=0 / bframes=2 / b_pyramid=0 / b_adapt=1 / b_bias=0 / direct=1 / weightb=0 / open_gop=0 / weightp=0 / keyint=24 / keyint_min=2 / scenecut=40 / intra_refresh=0 / rc=crf / mbtree=0 / crf=19.0 / qcomp=0.60 / qpmin=0 / qpmax=69 / qpstep=4 / ip_ratio=1.40 / pb_ratio=1.30 / aq=1:1.00
    Default                     : Yes
    Forced                      : No
    Color range                 : Limited
    Color primaries             : BT.709
    Transfer characteristics    : BT.709
    Matrix coefficients         : BT.709
    
    Audio #1
    ID                          : 2
    Format                      : AC-3
    Format/Info                 : Audio Coding 3
    Mode extension              : CM (complete main)
    Format settings, Endianness : Big
    Codec ID                    : A_AC3
    Duration                    : 23mn 4s
    Bit rate mode               : Constant
    Bit rate                    : 448 Kbps
    Channel(s)                  : 6 channels
    Channel positions           : Front: L C R, Side: L R, LFE
    Sampling rate               : 48.0 KHz
    Frame rate                  : 31.250 fps (1536 spf)
    Compression mode            : Lossy
    Stream size                 : 74.0 MiB (13%)
    Language                    : German
    Default                     : Yes
    Forced                      : No
    
    Audio #2
    ID                          : 3
    Format                      : AC-3
    Format/Info                 : Audio Coding 3
    Mode extension              : CM (complete main)
    Format settings, Endianness : Big
    Codec ID                    : A_AC3
    Duration                    : 23mn 4s
    Bit rate mode               : Constant
    Bit rate                    : 448 Kbps
    Channel(s)                  : 2 channels
    Channel positions           : Front: L R
    Sampling rate               : 48.0 KHz
    Frame rate                  : 31.250 fps (1536 spf)
    Compression mode            : Lossy
    Stream size                 : 74.0 MiB (13%)
    Language                    : Japanese
    Default                     : No
    Forced                      : No
    
    Text #1
    ID                          : 4
    Format                      : PGS
    Muxing mode                 : zlib
    Codec ID                    : S_HDMV/PGS
    Codec ID/Info               : Picture based subtitle format used on BDs/HD-DVDs
    Duration                    : 22mn 17s
    Bit rate                    : 2 596 bps
    Count of elements           : 70
    Stream size                 : 424 KiB (0%)
    Language                    : German
    Default                     : No
    Forced                      : No
    
    Text #2
    ID                          : 5
    Format                      : PGS
    Muxing mode                 : zlib
    Codec ID                    : S_HDMV/PGS
    Codec ID/Info               : Picture based subtitle format used on BDs/HD-DVDs
    Duration                    : 22mn 50s
    Bit rate                    : 21.9 Kbps
    Count of elements           : 552
    Stream size                 : 3.58 MiB (1%)
    Language                    : German
    Default                     : No
    Forced                      : No
    
    Menu
    00:00:00.000                : en:(01)00:00:00:000
    00:01:30.298                : en:(02)00:01:30:298
    00:13:41.695                : en:(03)00:13:41:695
    00:21:04.012                : en:(04)00:21:04:012
    00:22:33.894                : en:(05)00:22:33:894
    00:23:04.925                : en:(06)00:23:04:925
    Code:
    Format                      : Matroska
    Format version              : Version 4 / Version 2
    File size                   : 1.63 GiB
    Duration                    : 23mn 4s
    Overall bit rate            : 10.1 Mbps
    Movie name                  : Naruto.Shippuden.E432.German.DL.1080p.BluRay.x264-Fuuko
    Encoded date                : UTC 2018-09-02 20:00:14
    Writing application         : mkvmerge v26.0.0 ('In The Game') 64-bit
    Writing library             : libebml v1.3.6 + libmatroska v1.4.9
    
    Video
    ID                          : 1
    Format                      : AVC
    Format/Info                 : Advanced Video Codec
    Format profile              : High@L4.1
    Format settings, CABAC      : Yes
    Format settings, ReFrames   : 3 frames
    Codec ID                    : V_MPEG4/ISO/AVC
    Duration                    : 23mn 3s
    Bit rate                    : 6 968 Kbps
    Width                       : 1 920 pixels
    Height                      : 1 080 pixels
    Display aspect ratio        : 16:9
    Frame rate mode             : Constant
    Frame rate                  : 23.976 (24000/1001) fps
    Color space                 : YUV
    Chroma subsampling          : 4:2:0
    Bit depth                   : 8 bits
    Scan type                   : Progressive
    Bits/(Pixel*Frame)          : 0.140
    Stream size                 : 1.12 GiB (69%)
    Writing library             : x264 core 148
    Encoding settings           : cabac=1 / ref=3 / deblock=1:-1:-1 / analyse=0x3:0 / me=hex / subme=5 / psy=1 / psy_rd=1.00:0.00 / mixed_ref=0 / me_range=16 / chroma_me=1 / trellis=1 / 8x8dct=1 / cqm=0 / deadzone=21,11 / fast_pskip=0 / chroma_qp_offset=0 / threads=16 / lookahead_threads=4 / sliced_threads=0 / nr=0 / decimate=1 / interlaced=0 / bluray_compat=0 / constrained_intra=0 / bframes=2 / b_pyramid=0 / b_adapt=1 / b_bias=0 / direct=1 / weightb=0 / open_gop=0 / weightp=0 / keyint=24 / keyint_min=2 / scenecut=40 / intra_refresh=0 / rc=crf / mbtree=0 / crf=19.0 / qcomp=0.60 / qpmin=0 / qpmax=69 / qpstep=4 / ip_ratio=1.40 / pb_ratio=1.30 / aq=1:1.00
    Default                     : Yes
    Forced                      : No
    Color range                 : Limited
    Color primaries             : BT.709
    Transfer characteristics    : BT.709
    Matrix coefficients         : BT.709
    
    Audio #1
    ID                          : 2
    Format                      : DTS
    Format/Info                 : Digital Theater Systems
    Format profile              : MA / Core
    Mode                        : 16
    Format settings, Endianness : Big
    Codec ID                    : A_DTS
    Duration                    : 23mn 4s
    Bit rate mode               : Variable / Constant
    Bit rate                    : 2 048 Kbps / 1 509 Kbps
    Channel(s)                  : 6 channels
    Channel positions           : Front: L C R, Side: L R, LFE
    Sampling rate               : 48.0 KHz
    Frame rate                  : 93.750 fps (512 spf)
    Bit depth                   : 16 bits
    Compression mode            : Lossless / Lossy
    Stream size                 : 345 MiB (21%)
    Language                    : German
    Default                     : Yes
    Forced                      : No
    
    Audio #2
    ID                          : 3
    Format                      : DTS
    Format/Info                 : Digital Theater Systems
    Format profile              : MA / Core
    Mode                        : 16
    Format settings, Endianness : Big
    Codec ID                    : A_DTS
    Duration                    : 23mn 4s
    Bit rate mode               : Variable / Constant
    Bit rate                    : 1 024 Kbps / 768 Kbps
    Channel(s)                  : 2 channels
    Channel positions           : Front: L R
    Sampling rate               : 48.0 KHz
    Frame rate                  : 93.750 fps (512 spf)
    Bit depth                   : 16 bits
    Compression mode            : Lossless / Lossy
    Stream size                 : 172 MiB (10%)
    Language                    : Japanese
    Default                     : No
    Forced                      : No
    
    Text #1
    ID                          : 4
    Format                      : PGS
    Muxing mode                 : zlib
    Codec ID                    : S_HDMV/PGS
    Codec ID/Info               : Picture based subtitle format used on BDs/HD-DVDs
    Duration                    : 22mn 17s
    Bit rate                    : 3 398 bps
    Count of elements           : 70
    Stream size                 : 555 KiB (0%)
    Language                    : German
    Default                     : No
    Forced                      : No
    
    Text #2
    ID                          : 5
    Format                      : PGS
    Muxing mode                 : zlib
    Codec ID                    : S_HDMV/PGS
    Codec ID/Info               : Picture based subtitle format used on BDs/HD-DVDs
    Duration                    : 22mn 50s
    Bit rate                    : 29.0 Kbps
    Count of elements           : 552
    Stream size                 : 4.74 MiB (0%)
    Language                    : German
    Default                     : No
    Forced                      : No
    
    Menu
    00:00:00.000                : en:(01)00:00:00:000
    00:01:30.298                : en:(02)00:01:30:298
    00:13:41.695                : en:(03)00:13:41:695
    00:21:04.012                : en:(04)00:21:04:012
    00:22:33.894                : en:(05)00:22:33:894
    00:23:04.925                : en:(06)00:23:04:925
    [​IMG]
    404p [​IMG]
    720p [​IMG]
    1080p [​IMG]

    Geschützter Bereich
    Registriere dich oder logge dich ein, um den Inhalt sehen zu können
     
    puxi, Griever, amzal und 58 anderen gefällt das.
  2. ClipperSunny

    ClipperSunny 100% Anime Otaku König

    Registriert seit:
    27. Jan. 2018
    Beiträge:
    342
    Zustimmungen:
    9.602
    Naruto Shippuden
    Naruto Shippuden
    Naruto Shippuuden

    [​IMG]
    Naruto Shippuuden 432 - 450 | Naruto Shippuden 432 - 450 [Ger-Jap-Dub][Ger-Sub][AAC|AC-3|DTS-HD][404p|720p|1080p][BluRay] - Fuuko

    Animeinformationen
    Kurzbeschreibung by AniSearch.de
    Zweieinhalb Jahre sind vergangen seit Naruto mit Jiraiya zusammen Konoha verließ, um zu trainieren. Da die Gruppe der Akatsuki allmählich aktiv wird und es nur eine Frage der Zeit ist, bis sie Naruto angreifen, kehren beide ins Dorf zurück. Den Blick immer Richtung Orochimaru und Sasuke gerichtet, planen Kakashi, Sakura und Naruto als „Team Kakashi“ ihre weitere Vorgehensweise. Doch die drohende Gefahr lässt nicht lange auf sich warten und die Akatsuki überfallen den „Hidden Sand“ mit dem Kazekage.


    Studio: Pierrot Co., Ltd.
    Genre: Fighting-Shounen
    Nebengenre: Abenteuer, Action, Drama, Fantasy, Fighting-Shounen, Komödie
    Spieldauer: 23 Min.
    Jahr: 2007

    Releaseinformationen
    Episoden: 432 - 450
    Sprache:
    Deutsch, Japanisch
    Untertitel: Deutsch
    Publisher: Panini Video KSM GmbH Viewster AG Crunchyroll
    Release-Gruppe: Fuuko
    Quelle: BluRay
    Format: MKV
    Video-Codec: x264
    Farbtiefe: 8bit
    Audio-Codec: AAC | AC3 | DTS-HD
    Audio-Kanäle: GER AAC 2.0 | JAP AAC 2.0 || GER AC3 5.1 | JAP AC3 2.0 || GER DTS-HD 5.1 | JAP DTS-HD 2.0
    Auflösung: 404p | 720p | 1080p
    Größe: 205 MB | 586 MB | 1.63 GB
    Hoster: Share-Online.biz

    Mediainfo
    Code:
    General
    Complete name                            : Naruto.Shppuden.E432.German.DL.BDRP.x264-Fuuko
    Format                                   : Matroska
    Format version                           : Version 4 / Version 2
    File size                                : 205 MiB
    Duration                                 : 23 min 5 s
    Overall bit rate                         : 1 244 kb/s
    Movie name                               : Naruto.Shippuden.E432.German.DL.BDRiP.x264-Fuuko
    Encoded date                             : UTC 2018-09-02 20:00:37
    Writing application                      : mkvmerge v26.0.0 ('In The Game') 64-bit
    Writing library                          : libebml v1.3.6 + libmatroska v1.4.9
    
    Video
    ID                                       : 1
    Format                                   : AVC
    Format/Info                              : Advanced Video Codec
    Format profile                           : High@L4.1
    Format settings                          : CABAC / 3 Ref Frames
    Format settings, CABAC                   : Yes
    Format settings, ReFrames                : 3 frames
    Codec ID                                 : V_MPEG4/ISO/AVC
    Duration                                 : 23 min 3 s
    Bit rate                                 : 983 kb/s
    Width                                    : 720 pixels
    Height                                   : 404 pixels
    Display aspect ratio                     : 16:9
    Frame rate mode                          : Constant
    Frame rate                               : 23.976 (24000/1001) FPS
    Color space                              : YUV
    Chroma subsampling                       : 4:2:0
    Bit depth                                : 8 bits
    Scan type                                : Progressive
    Bits/(Pixel*Frame)                       : 0.141
    Stream size                              : 162 MiB (79%)
    Writing library                          : x264 core 148
    Encoding settings                        : cabac=1 / ref=3 / deblock=1:-1:-1 / analyse=0x3:0 / me=hex / subme=5 / psy=1 / psy_rd=1.00:0.00 / mixed_ref=0 / me_range=16 / chroma_me=1 / trellis=1 / 8x8dct=1 / cqm=0 / deadzone=21,11 / fast_pskip=0 / chroma_qp_offset=0 / threads=16 / lookahead_threads=3 / sliced_threads=0 / nr=0 / decimate=1 / interlaced=0 / bluray_compat=0 / constrained_intra=0 / bframes=2 / b_pyramid=0 / b_adapt=1 / b_bias=0 / direct=1 / weightb=0 / open_gop=0 / weightp=0 / keyint=24 / keyint_min=2 / scenecut=40 / intra_refresh=0 / rc=crf / mbtree=0 / crf=19.0 / qcomp=0.60 / qpmin=0 / qpmax=69 / qpstep=4 / ip_ratio=1.40 / pb_ratio=1.30 / aq=1:1.00
    Default                                  : Yes
    Forced                                   : No
    Color range                              : Limited
    Color primaries                          : BT.601 NTSC
    Transfer characteristics                 : BT.709
    Matrix coefficients                      : BT.601
    
    Audio #1
    ID                                       : 2
    Format                                   : AAC
    Format/Info                              : Advanced Audio Codec
    Format profile                           : LC
    Codec ID                                 : A_AAC-2
    Duration                                 : 23 min 5 s
    Bit rate                                 : 125 kb/s
    Channel(s)                               : 2 channels
    Channel positions                        : Front: L R
    Sampling rate                            : 48.0 kHz
    Frame rate                               : 46.875 FPS (1024 SPF)
    Compression mode                         : Lossy
    Stream size                              : 20.7 MiB (10%)
    Language                                 : German
    Default                                  : Yes
    Forced                                   : No
    
    Audio #2
    ID                                       : 3
    Format                                   : AAC
    Format/Info                              : Advanced Audio Codec
    Format profile                           : LC
    Codec ID                                 : A_AAC-2
    Duration                                 : 23 min 5 s
    Bit rate                                 : 125 kb/s
    Channel(s)                               : 2 channels
    Channel positions                        : Front: L R
    Sampling rate                            : 48.0 kHz
    Frame rate                               : 46.875 FPS (1024 SPF)
    Compression mode                         : Lossy
    Stream size                              : 20.7 MiB (10%)
    Language                                 : Japanese
    Default                                  : No
    Forced                                   : No
    
    Text #1
    ID                                       : 4
    Format                                   : PGS
    Muxing mode                              : zlib
    Codec ID                                 : S_HDMV/PGS
    Codec ID/Info                            : Picture based subtitle format used on BDs/HD-DVDs
    Duration                                 : 22 min 17 s
    Bit rate                                 : 1 063 b/s
    Count of elements                        : 70
    Stream size                              : 174 KiB (0%)
    Language                                 : German
    Default                                  : No
    Forced                                   : No
    
    Text #2
    ID                                       : 5
    Format                                   : PGS
    Muxing mode                              : zlib
    Codec ID                                 : S_HDMV/PGS
    Codec ID/Info                            : Picture based subtitle format used on BDs/HD-DVDs
    Duration                                 : 22 min 49 s
    Bit rate                                 : 8 873 b/s
    Count of elements                        : 552
    Stream size                              : 1.45 MiB (1%)
    Language                                 : German
    Default                                  : No
    Forced                                   : No
    
    Menu
    00:00:00.000                             : en:(01)00:00:00:000
    00:01:30.298                             : en:(02)00:01:30:298
    00:13:41.695                             : en:(03)00:13:41:695
    00:21:04.012                             : en:(04)00:21:04:012
    00:22:33.894                             : en:(05)00:22:33:894
    00:23:04.925                             : en:(06)00:23:04:925
    
    Code:
    General
    Complete name                            : Naruto.Shppuden.E432.German.DL.720p.BluRay.x264-Fuuko
    Format                                   : Matroska
    Format version                           : Version 4 / Version 2
    File size                                : 586 MiB
    Duration                                 : 23 min 4 s
    Overall bit rate                         : 3 552 kb/s
    Movie name                               : Naruto.Shippuden.E432.German.DL.720p.BluRay.x264-Fuuko
    Encoded date                             : UTC 2018-09-02 19:59:58
    Writing application                      : mkvmerge v26.0.0 ('In The Game') 64-bit
    Writing library                          : libebml v1.3.6 + libmatroska v1.4.9
    
    Video
    ID                                       : 1
    Format                                   : AVC
    Format/Info                              : Advanced Video Codec
    Format profile                           : High@L4.1
    Format settings                          : CABAC / 3 Ref Frames
    Format settings, CABAC                   : Yes
    Format settings, ReFrames                : 3 frames
    Codec ID                                 : V_MPEG4/ISO/AVC
    Duration                                 : 23 min 3 s
    Bit rate                                 : 2 639 kb/s
    Width                                    : 1 280 pixels
    Height                                   : 720 pixels
    Display aspect ratio                     : 16:9
    Frame rate mode                          : Constant
    Frame rate                               : 23.976 (24000/1001) FPS
    Color space                              : YUV
    Chroma subsampling                       : 4:2:0
    Bit depth                                : 8 bits
    Scan type                                : Progressive
    Bits/(Pixel*Frame)                       : 0.119
    Stream size                              : 435 MiB (74%)
    Writing library                          : x264 core 148
    Encoding settings                        : cabac=1 / ref=3 / deblock=1:-1:-1 / analyse=0x3:0 / me=hex / subme=5 / psy=1 / psy_rd=1.00:0.00 / mixed_ref=0 / me_range=16 / chroma_me=1 / trellis=1 / 8x8dct=1 / cqm=0 / deadzone=21,11 / fast_pskip=0 / chroma_qp_offset=0 / threads=16 / lookahead_threads=4 / sliced_threads=0 / nr=0 / decimate=1 / interlaced=0 / bluray_compat=0 / constrained_intra=0 / bframes=2 / b_pyramid=0 / b_adapt=1 / b_bias=0 / direct=1 / weightb=0 / open_gop=0 / weightp=0 / keyint=24 / keyint_min=2 / scenecut=40 / intra_refresh=0 / rc=crf / mbtree=0 / crf=19.0 / qcomp=0.60 / qpmin=0 / qpmax=69 / qpstep=4 / ip_ratio=1.40 / pb_ratio=1.30 / aq=1:1.00
    Default                                  : Yes
    Forced                                   : No
    Color range                              : Limited
    Color primaries                          : BT.709
    Transfer characteristics                 : BT.709
    Matrix coefficients                      : BT.709
    
    Audio #1
    ID                                       : 2
    Format                                   : AC-3
    Format/Info                              : Audio Coding 3
    Codec ID                                 : A_AC3
    Duration                                 : 23 min 4 s
    Bit rate mode                            : Constant
    Bit rate                                 : 448 kb/s
    Channel(s)                               : 6 channels
    Channel positions                        : Front: L C R, Side: L R, LFE
    Sampling rate                            : 48.0 kHz
    Frame rate                               : 31.250 FPS (1536 SPF)
    Bit depth                                : 16 bits
    Compression mode                         : Lossy
    Stream size                              : 74.0 MiB (13%)
    Language                                 : German
    Service kind                             : Complete Main
    Default                                  : Yes
    Forced                                   : No
    
    Audio #2
    ID                                       : 3
    Format                                   : AC-3
    Format/Info                              : Audio Coding 3
    Codec ID                                 : A_AC3
    Duration                                 : 23 min 4 s
    Bit rate mode                            : Constant
    Bit rate                                 : 448 kb/s
    Channel(s)                               : 2 channels
    Channel positions                        : Front: L R
    Sampling rate                            : 48.0 kHz
    Frame rate                               : 31.250 FPS (1536 SPF)
    Bit depth                                : 16 bits
    Compression mode                         : Lossy
    Stream size                              : 74.0 MiB (13%)
    Language                                 : Japanese
    Service kind                             : Complete Main
    Default                                  : No
    Forced                                   : No
    
    Text #1
    ID                                       : 4
    Format                                   : PGS
    Muxing mode                              : zlib
    Codec ID                                 : S_HDMV/PGS
    Codec ID/Info                            : Picture based subtitle format used on BDs/HD-DVDs
    Duration                                 : 22 min 17 s
    Bit rate                                 : 2 596 b/s
    Count of elements                        : 70
    Stream size                              : 424 KiB (0%)
    Language                                 : German
    Default                                  : No
    Forced                                   : No
    
    Text #2
    ID                                       : 5
    Format                                   : PGS
    Muxing mode                              : zlib
    Codec ID                                 : S_HDMV/PGS
    Codec ID/Info                            : Picture based subtitle format used on BDs/HD-DVDs
    Duration                                 : 22 min 50 s
    Bit rate                                 : 21.9 kb/s
    Count of elements                        : 552
    Stream size                              : 3.58 MiB (1%)
    Language                                 : German
    Default                                  : No
    Forced                                   : No
    
    Menu
    00:00:00.000                             : en:(01)00:00:00:000
    00:01:30.298                             : en:(02)00:01:30:298
    00:13:41.695                             : en:(03)00:13:41:695
    00:21:04.012                             : en:(04)00:21:04:012
    00:22:33.894                             : en:(05)00:22:33:894
    00:23:04.925                             : en:(06)00:23:04:925
    
    Code:
    General
    Complete name                            : Naruto.Shppuden.E432.German.DL.1080p.BluRay.x264-Fuuko
    Format                                   : Matroska
    Format version                           : Version 4 / Version 2
    File size                                : 1.63 GiB
    Duration                                 : 23 min 4 s
    Overall bit rate                         : 10.1 Mb/s
    Movie name                               : Naruto.Shippuden.E432.German.DL.1080p.BluRay.x264-Fuuko
    Encoded date                             : UTC 2018-09-02 20:00:14
    Writing application                      : mkvmerge v26.0.0 ('In The Game') 64-bit
    Writing library                          : libebml v1.3.6 + libmatroska v1.4.9
    
    Video
    ID                                       : 1
    Format                                   : AVC
    Format/Info                              : Advanced Video Codec
    Format profile                           : High@L4.1
    Format settings                          : CABAC / 3 Ref Frames
    Format settings, CABAC                   : Yes
    Format settings, ReFrames                : 3 frames
    Codec ID                                 : V_MPEG4/ISO/AVC
    Duration                                 : 23 min 3 s
    Bit rate                                 : 6 968 kb/s
    Width                                    : 1 920 pixels
    Height                                   : 1 080 pixels
    Display aspect ratio                     : 16:9
    Frame rate mode                          : Constant
    Frame rate                               : 23.976 (24000/1001) FPS
    Color space                              : YUV
    Chroma subsampling                       : 4:2:0
    Bit depth                                : 8 bits
    Scan type                                : Progressive
    Bits/(Pixel*Frame)                       : 0.140
    Stream size                              : 1.12 GiB (69%)
    Writing library                          : x264 core 148
    Encoding settings                        : cabac=1 / ref=3 / deblock=1:-1:-1 / analyse=0x3:0 / me=hex / subme=5 / psy=1 / psy_rd=1.00:0.00 / mixed_ref=0 / me_range=16 / chroma_me=1 / trellis=1 / 8x8dct=1 / cqm=0 / deadzone=21,11 / fast_pskip=0 / chroma_qp_offset=0 / threads=16 / lookahead_threads=4 / sliced_threads=0 / nr=0 / decimate=1 / interlaced=0 / bluray_compat=0 / constrained_intra=0 / bframes=2 / b_pyramid=0 / b_adapt=1 / b_bias=0 / direct=1 / weightb=0 / open_gop=0 / weightp=0 / keyint=24 / keyint_min=2 / scenecut=40 / intra_refresh=0 / rc=crf / mbtree=0 / crf=19.0 / qcomp=0.60 / qpmin=0 / qpmax=69 / qpstep=4 / ip_ratio=1.40 / pb_ratio=1.30 / aq=1:1.00
    Default                                  : Yes
    Forced                                   : No
    Color range                              : Limited
    Color primaries                          : BT.709
    Transfer characteristics                 : BT.709
    Matrix coefficients                      : BT.709
    
    Audio #1
    ID                                       : 2
    Format                                   : DTS
    Format/Info                              : Digital Theater Systems
    Format profile                           : MA / Core
    Codec ID                                 : A_DTS
    Duration                                 : 23 min 4 s
    Bit rate mode                            : Variable / Constant
    Bit rate                                 : 2 048 kb/s / 1 509 kb/s
    Channel(s)                               : 6 channels
    Channel positions                        : Front: L C R, Side: L R, LFE
    Sampling rate                            : 48.0 kHz
    Frame rate                               : 93.750 FPS (512 SPF)
    Bit depth                                : 16 bits
    Compression mode                         : Lossless / Lossy
    Stream size                              : 345 MiB (21%)
    Language                                 : German
    Default                                  : Yes
    Forced                                   : No
    
    Audio #2
    ID                                       : 3
    Format                                   : DTS
    Format/Info                              : Digital Theater Systems
    Format profile                           : MA / Core
    Codec ID                                 : A_DTS
    Duration                                 : 23 min 4 s
    Bit rate mode                            : Variable / Constant
    Bit rate                                 : 1 024 kb/s / 768 kb/s
    Channel(s)                               : 2 channels
    Channel positions                        : Front: L R
    Sampling rate                            : 48.0 kHz
    Frame rate                               : 93.750 FPS (512 SPF)
    Bit depth                                : 16 bits
    Compression mode                         : Lossless / Lossy
    Stream size                              : 172 MiB (10%)
    Language                                 : Japanese
    Default                                  : No
    Forced                                   : No
    
    Text #1
    ID                                       : 4
    Format                                   : PGS
    Muxing mode                              : zlib
    Codec ID                                 : S_HDMV/PGS
    Codec ID/Info                            : Picture based subtitle format used on BDs/HD-DVDs
    Duration                                 : 22 min 17 s
    Bit rate                                 : 3 398 b/s
    Count of elements                        : 70
    Stream size                              : 555 KiB (0%)
    Language                                 : German
    Default                                  : No
    Forced                                   : No
    
    Text #2
    ID                                       : 5
    Format                                   : PGS
    Muxing mode                              : zlib
    Codec ID                                 : S_HDMV/PGS
    Codec ID/Info                            : Picture based subtitle format used on BDs/HD-DVDs
    Duration                                 : 22 min 50 s
    Bit rate                                 : 29.0 kb/s
    Count of elements                        : 552
    Stream size                              : 4.74 MiB (0%)
    Language                                 : German
    Default                                  : No
    Forced                                   : No
    
    Menu
    00:00:00.000                             : en:(01)00:00:00:000
    00:01:30.298                             : en:(02)00:01:30:298
    00:13:41.695                             : en:(03)00:13:41:695
    00:21:04.012                             : en:(04)00:21:04:012
    00:22:33.894                             : en:(05)00:22:33:894
    00:23:04.925                             : en:(06)00:23:04:925
    
    [​IMG]
    Onlinestatus:
    [​IMG]404p AAC | [​IMG]720p AC3 | [​IMG]1080p DTS-HD
    Geschützter Bereich
    Registriere dich oder logge dich ein, um den Inhalt sehen zu können
     
  3. Fuuko

    Fuuko Freigeschalteter Otaku Otaku Novize

    Registriert seit:
    19. Sep. 2018
    Beiträge:
    39
    Zustimmungen:
    1.029
    ~ Staffel 07 & 08 mit den Episoden 144 - 175 hinzugefügt ~