Wir verwenden Cookies, um deinen Aufenthalt auf Animes.so möglichst angenehm gestalten zu können. Mehr erfahren

No Guns Life [Laufend][Ger-Jap-Dub][Ger-Sub][720p][1080p][E-AC-3|DTS-HD][8bits|10bits][x264|x265][BluRay] - Hugo

Dieses Thema im Forum "Anime (Ger-Dub)" wurde erstellt von Azugo, 13. Okt. 2021.

  1. Azugo
    Azugo

    H͓̽u͓̽g͓̽o͓̽ ͓̽&͓̽ ͓̽A͓̽z͓̽u͓̽r͓̽a͓̽ Premium Otaku Gott Uploader

    Registriert seit:
    25. März 2020
    Beiträge:
    1.682
    Zustimmungen:
    11.343

    No Guns Life



    146307918p.jpg


    [​IMG]

    [​IMG]

    Spieldauer: ~24min
    Genre: Action
    Nebengenres: Drama, Komödie, Scifi
    Jahr: 2021
    Sprache: [​IMG]Deutsch, [​IMG]Japanisch
    Untertitel: [​IMG]Deutsch
    Größe pro Folge: ~1090mb, ~2520mb, ~2670mb, ~2530mb
    Episodenanzahl: 06/12
    Format: MKV
    Auflösung: 720p (16:9), 1080p (16:9)
    Videocodec: H264 (AVC). H265 (HEVC)
    Audiocodec: E-AC-3, DTS-HD
    Releasegruppe: Hugo
    Hoster: [​IMG]ddownload, [​IMG]Uploaded


    [​IMG]
    Code:
    Format                                   : Matroska
    Format version                           : Version 4
    File size                                : 1.09 GiB
    Duration                                 : 23 min 35 s
    Overall bit rate                         : 6 634 kb/s
    Encoded date                             : UTC 2021-10-11 20:18:59
    Writing application                      : mkvmerge v62.0.0 ('Apollo') 64-bit
    Writing library                          : libebml v1.4.2 + libmatroska v1.6.4
    Release                                  : By Hugo
    Version                                  : 1.4
    
    Video
    ID                                       : 1
    Format                                   : AVC
    Format/Info                              : Advanced Video Codec
    Format profile                           : High@L5.1
    Format settings                          : CABAC / 6 Ref Frames
    Format settings, CABAC                   : Yes
    Format settings, Reference frames        : 6 frames
    Codec ID                                 : V_MPEG4/ISO/AVC
    Duration                                 : 23 min 35 s
    Bit rate                                 : 5 321 kb/s
    Width                                    : 1 280 pixels
    Height                                   : 720 pixels
    Display aspect ratio                     : 16:9
    Frame rate mode                          : Constant
    Frame rate                               : 23.976 (24000/1001) FPS
    Color space                              : YUV
    Chroma subsampling                       : 4:2:0
    Bit depth                                : 8 bits
    Scan type                                : Progressive
    Bits/(Pixel*Frame)                       : 0.241
    Stream size                              : 898 MiB (80%)
    Language                                 : English
    Default                                  : Yes
    Forced                                   : No
    Color range                              : Limited
    Color primaries                          : BT.709
    Transfer characteristics                 : BT.709
    Matrix coefficients                      : BT.709
    
    Audio #1
    ID                                       : 4
    Format                                   : E-AC-3
    Format/Info                              : Enhanced AC-3
    Commercial name                          : Dolby Digital Plus
    Codec ID                                 : A_EAC3
    Duration                                 : 23 min 35 s
    Bit rate mode                            : Constant
    Bit rate                                 : 640 kb/s
    Channel(s)                               : 2 channels
    Channel layout                           : L R
    Sampling rate                            : 48.0 kHz
    Frame rate                               : 31.250 FPS (1536 SPF)
    Bit depth                                : 16 bits
    Compression mode                         : Lossy
    Stream size                              : 108 MiB (10%)
    Title                                    : Stereo
    Language                                 : German
    Service kind                             : Complete Main
    Default                                  : Yes
    Forced                                   : No
    
    Audio #2
    ID                                       : 5
    Format                                   : E-AC-3
    Format/Info                              : Enhanced AC-3
    Commercial name                          : Dolby Digital Plus
    Codec ID                                 : A_EAC3
    Duration                                 : 23 min 35 s
    Bit rate mode                            : Constant
    Bit rate                                 : 640 kb/s
    Channel(s)                               : 2 channels
    Channel layout                           : L R
    Sampling rate                            : 48.0 kHz
    Frame rate                               : 31.250 FPS (1536 SPF)
    Bit depth                                : 16 bits
    Compression mode                         : Lossy
    Stream size                              : 108 MiB (10%)
    Title                                    : Stereo
    Language                                 : Japanese
    Service kind                             : Complete Main
    Default                                  : No
    Forced                                   : No
    
    Text #1
    ID                                       : 2
    Format                                   : PGS
    Muxing mode                              : zlib
    Codec ID                                 : S_HDMV/PGS
    Codec ID/Info                            : Picture based subtitle format used on BDs/HD-DVDs
    Duration                                 : 22 min 43 s
    Bit rate                                 : 5 957 b/s
    Count of elements                        : 78
    Stream size                              : 991 KiB (0%)
    Title                                    : German Forced
    Language                                 : German
    Default                                  : Yes
    Forced                                   : No
    
    Text #2
    ID                                       : 3
    Format                                   : PGS
    Muxing mode                              : zlib
    Codec ID                                 : S_HDMV/PGS
    Codec ID/Info                            : Picture based subtitle format used on BDs/HD-DVDs
    Duration                                 : 23 min 31 s
    Bit rate                                 : 45.4 kb/s
    Count of elements                        : 514
    Stream size                              : 7.63 MiB (1%)
    Title                                    : German Full
    Language                                 : German
    Default                                  : No
    Forced                                   : No
    
    Menu
    00:00:00.000                             : :Chapter 01
    00:00:41.750                             : :Chapter 02
    00:02:12.006                             : :Chapter 03
    00:10:32.048                             : :Chapter 04
    00:21:50.058                             : :Chapter 05
    00:23:20.023                             : :Chapter 06
    
    
    Code:
    Format                                   : Matroska
    Format version                           : Version 4
    File size                                : 2.52 GiB
    Duration                                 : 23 min 35 s
    Overall bit rate                         : 15.3 Mb/s
    Encoded date                             : UTC 2021-10-11 21:01:15
    Writing application                      : mkvmerge v61.0.0 ('So') 64-bit
    Writing library                          : libebml v1.4.2 + libmatroska v1.6.4
    Release                                  : By Hugo
    Version                                  : 1.4
    
    Video
    ID                                       : 1
    Format                                   : AVC
    Format/Info                              : Advanced Video Codec
    Format profile                           : High@L5.1
    Format settings                          : CABAC / 8 Ref Frames
    Format settings, CABAC                   : Yes
    Format settings, Reference frames        : 8 frames
    Codec ID                                 : V_MPEG4/ISO/AVC
    Duration                                 : 23 min 35 s
    Bit rate                                 : 14.0 Mb/s
    Width                                    : 1 920 pixels
    Height                                   : 1 080 pixels
    Display aspect ratio                     : 16:9
    Frame rate mode                          : Constant
    Frame rate                               : 23.976 (24000/1001) FPS
    Color space                              : YUV
    Chroma subsampling                       : 4:2:0
    Bit depth                                : 8 bits
    Scan type                                : Progressive
    Bits/(Pixel*Frame)                       : 0.281
    Stream size                              : 2.30 GiB (91%)
    Language                                 : English
    Default                                  : Yes
    Forced                                   : No
    Color range                              : Limited
    Color primaries                          : BT.709
    Transfer characteristics                 : BT.709
    Matrix coefficients                      : BT.709
    
    Audio #1
    ID                                       : 4
    Format                                   : E-AC-3
    Format/Info                              : Enhanced AC-3
    Commercial name                          : Dolby Digital Plus
    Codec ID                                 : A_EAC3
    Duration                                 : 23 min 35 s
    Bit rate mode                            : Constant
    Bit rate                                 : 640 kb/s
    Channel(s)                               : 2 channels
    Channel layout                           : L R
    Sampling rate                            : 48.0 kHz
    Frame rate                               : 31.250 FPS (1536 SPF)
    Bit depth                                : 16 bits
    Compression mode                         : Lossy
    Stream size                              : 108 MiB (4%)
    Title                                    : Stereo
    Language                                 : German
    Service kind                             : Complete Main
    Default                                  : Yes
    Forced                                   : No
    
    Audio #2
    ID                                       : 5
    Format                                   : E-AC-3
    Format/Info                              : Enhanced AC-3
    Commercial name                          : Dolby Digital Plus
    Codec ID                                 : A_EAC3
    Duration                                 : 23 min 35 s
    Bit rate mode                            : Constant
    Bit rate                                 : 640 kb/s
    Channel(s)                               : 2 channels
    Channel layout                           : L R
    Sampling rate                            : 48.0 kHz
    Frame rate                               : 31.250 FPS (1536 SPF)
    Bit depth                                : 16 bits
    Compression mode                         : Lossy
    Stream size                              : 108 MiB (4%)
    Title                                    : Stereo
    Language                                 : Japanese
    Service kind                             : Complete Main
    Default                                  : No
    Forced                                   : No
    
    Text #1
    ID                                       : 2
    Format                                   : PGS
    Muxing mode                              : zlib
    Codec ID                                 : S_HDMV/PGS
    Codec ID/Info                            : Picture based subtitle format used on BDs/HD-DVDs
    Duration                                 : 22 min 43 s
    Bit rate                                 : 5 957 b/s
    Count of elements                        : 78
    Stream size                              : 991 KiB (0%)
    Title                                    : German Forced
    Language                                 : German
    Default                                  : Yes
    Forced                                   : No
    
    Text #2
    ID                                       : 3
    Format                                   : PGS
    Muxing mode                              : zlib
    Codec ID                                 : S_HDMV/PGS
    Codec ID/Info                            : Picture based subtitle format used on BDs/HD-DVDs
    Duration                                 : 23 min 31 s
    Bit rate                                 : 45.4 kb/s
    Count of elements                        : 514
    Stream size                              : 7.63 MiB (0%)
    Title                                    : German Full
    Language                                 : German
    Default                                  : No
    Forced                                   : No
    
    Menu
    00:00:00.000                             : :Chapter 01
    00:00:41.750                             : :Chapter 02
    00:02:12.006                             : :Chapter 03
    00:10:32.048                             : :Chapter 04
    00:21:50.058                             : :Chapter 05
    00:23:20.023                             : :Chapter 06
    
    
    Code:
    Format                                   : Matroska
    Format version                           : Version 4
    File size                                : 2.67 GiB
    Duration                                 : 23 min 35 s
    Overall bit rate mode                    : Variable
    Overall bit rate                         : 16.2 Mb/s
    Encoded date                             : UTC 2021-10-11 10:31:33
    Writing application                      : mkvmerge v62.0.0 ('Apollo') 64-bit
    Writing library                          : libebml v1.4.2 + libmatroska v1.6.4
    Release                                  : By Hugo
    Version                                  : 1.4
    
    Video
    ID                                       : 1
    Format                                   : AVC
    Format/Info                              : Advanced Video Codec
    Format profile                           : High@L5.1
    Format settings                          : CABAC / 8 Ref Frames
    Format settings, CABAC                   : Yes
    Format settings, Reference frames        : 8 frames
    Codec ID                                 : V_MPEG4/ISO/AVC
    Duration                                 : 23 min 35 s
    Bit rate                                 : 14.0 Mb/s
    Width                                    : 1 920 pixels
    Height                                   : 1 080 pixels
    Display aspect ratio                     : 16:9
    Frame rate mode                          : Constant
    Frame rate                               : 23.976 (24000/1001) FPS
    Color space                              : YUV
    Chroma subsampling                       : 4:2:0
    Bit depth                                : 8 bits
    Scan type                                : Progressive
    Bits/(Pixel*Frame)                       : 0.281
    Stream size                              : 2.30 GiB (86%)
    Language                                 : English
    Default                                  : Yes
    Forced                                   : No
    Color range                              : Limited
    Color primaries                          : BT.709
    Transfer characteristics                 : BT.709
    Matrix coefficients                      : BT.709
    
    Audio #1
    ID                                       : 4
    Format                                   : DTS XLL
    Format/Info                              : Digital Theater Systems
    Commercial name                          : DTS-HD Master Audio
    Codec ID                                 : A_DTS
    Duration                                 : 23 min 35 s
    Bit rate mode                            : Variable
    Bit rate                                 : 1 080 kb/s
    Channel(s)                               : 2 channels
    Channel layout                           : L R
    Sampling rate                            : 48.0 kHz
    Frame rate                               : 93.750 FPS (512 SPF)
    Bit depth                                : 16 bits
    Compression mode                         : Lossless
    Stream size                              : 182 MiB (7%)
    Title                                    : Stereo
    Language                                 : German
    Default                                  : Yes
    Forced                                   : No
    
    Audio #2
    ID                                       : 5
    Format                                   : DTS XLL
    Format/Info                              : Digital Theater Systems
    Commercial name                          : DTS-HD Master Audio
    Codec ID                                 : A_DTS
    Duration                                 : 23 min 35 s
    Bit rate mode                            : Variable
    Bit rate                                 : 1 097 kb/s
    Channel(s)                               : 2 channels
    Channel layout                           : L R
    Sampling rate                            : 48.0 kHz
    Frame rate                               : 93.750 FPS (512 SPF)
    Bit depth                                : 16 bits
    Compression mode                         : Lossless
    Stream size                              : 185 MiB (7%)
    Title                                    : Stereo
    Language                                 : Japanese
    Default                                  : No
    Forced                                   : No
    
    Text #1
    ID                                       : 2
    Format                                   : PGS
    Muxing mode                              : zlib
    Codec ID                                 : S_HDMV/PGS
    Codec ID/Info                            : Picture based subtitle format used on BDs/HD-DVDs
    Duration                                 : 22 min 43 s
    Bit rate                                 : 5 957 b/s
    Count of elements                        : 78
    Stream size                              : 991 KiB (0%)
    Title                                    : German Forced
    Language                                 : German
    Default                                  : Yes
    Forced                                   : No
    
    Text #2
    ID                                       : 3
    Format                                   : PGS
    Muxing mode                              : zlib
    Codec ID                                 : S_HDMV/PGS
    Codec ID/Info                            : Picture based subtitle format used on BDs/HD-DVDs
    Duration                                 : 23 min 31 s
    Bit rate                                 : 45.4 kb/s
    Count of elements                        : 514
    Stream size                              : 7.63 MiB (0%)
    Title                                    : German Full
    Language                                 : German
    Default                                  : No
    Forced                                   : No
    
    Menu
    00:00:00.000                             : :Chapter 01
    00:00:41.750                             : :Chapter 02
    00:02:12.006                             : :Chapter 03
    00:10:32.048                             : :Chapter 04
    00:21:50.058                             : :Chapter 05
    00:23:20.023                             : :Chapter 06
    
    
    Code:
    Format                                   : Matroska
    Format version                           : Version 4
    File size                                : 2.53 GiB
    Duration                                 : 23 min 35 s
    Overall bit rate mode                    : Variable
    Overall bit rate                         : 15.3 Mb/s
    Encoded date                             : UTC 2021-10-13 00:42:21
    Writing application                      : mkvmerge v62.0.0 ('Apollo') 64-bit
    Writing library                          : libebml v1.4.2 + libmatroska v1.6.4
    
    Video
    ID                                       : 1
    Format                                   : HEVC
    Format/Info                              : High Efficiency Video Coding
    Format profile                           : Main 10@L6.2@Main
    Codec ID                                 : V_MPEGH/ISO/HEVC
    Duration                                 : 23 min 35 s
    Bit rate                                 : 13.1 Mb/s
    Width                                    : 1 920 pixels
    Height                                   : 1 080 pixels
    Display aspect ratio                     : 16:9
    Frame rate mode                          : Constant
    Frame rate                               : 23.976 (24000/1001) FPS
    Color space                              : YUV
    Chroma subsampling                       : 4:2:0
    Bit depth                                : 10 bits
    Bits/(Pixel*Frame)                       : 0.264
    Stream size                              : 2.16 GiB (86%)
    Language                                 : English
    Default                                  : Yes
    Forced                                   : No
    Color range                              : Limited
    Color primaries                          : BT.709
    Transfer characteristics                 : BT.709
    Matrix coefficients                      : BT.709
    
    Audio #1
    ID                                       : 4
    Format                                   : DTS XLL
    Format/Info                              : Digital Theater Systems
    Commercial name                          : DTS-HD Master Audio
    Codec ID                                 : A_DTS
    Duration                                 : 23 min 35 s
    Bit rate mode                            : Variable
    Bit rate                                 : 1 080 kb/s
    Channel(s)                               : 2 channels
    Channel layout                           : L R
    Sampling rate                            : 48.0 kHz
    Frame rate                               : 93.750 FPS (512 SPF)
    Bit depth                                : 16 bits
    Compression mode                         : Lossless
    Stream size                              : 182 MiB (7%)
    Title                                    : Stereo
    Language                                 : German
    Default                                  : Yes
    Forced                                   : No
    
    Audio #2
    ID                                       : 5
    Format                                   : DTS XLL
    Format/Info                              : Digital Theater Systems
    Commercial name                          : DTS-HD Master Audio
    Codec ID                                 : A_DTS
    Duration                                 : 23 min 35 s
    Bit rate mode                            : Variable
    Bit rate                                 : 1 097 kb/s
    Channel(s)                               : 2 channels
    Channel layout                           : L R
    Sampling rate                            : 48.0 kHz
    Frame rate                               : 93.750 FPS (512 SPF)
    Bit depth                                : 16 bits
    Compression mode                         : Lossless
    Stream size                              : 185 MiB (7%)
    Title                                    : Stereo
    Language                                 : Japanese
    Default                                  : No
    Forced                                   : No
    
    Text #1
    ID                                       : 2
    Format                                   : PGS
    Muxing mode                              : zlib
    Codec ID                                 : S_HDMV/PGS
    Codec ID/Info                            : Picture based subtitle format used on BDs/HD-DVDs
    Duration                                 : 22 min 43 s
    Bit rate                                 : 5 957 b/s
    Count of elements                        : 78
    Stream size                              : 991 KiB (0%)
    Title                                    : German Forced
    Language                                 : German
    Default                                  : Yes
    Forced                                   : No
    
    Text #2
    ID                                       : 3
    Format                                   : PGS
    Muxing mode                              : zlib
    Codec ID                                 : S_HDMV/PGS
    Codec ID/Info                            : Picture based subtitle format used on BDs/HD-DVDs
    Duration                                 : 23 min 31 s
    Bit rate                                 : 45.4 kb/s
    Count of elements                        : 514
    Stream size                              : 7.63 MiB (0%)
    Title                                    : German Full
    Language                                 : German
    Default                                  : No
    Forced                                   : No
    
    Menu
    00:00:00.000                             : :Chapter 01
    00:00:41.750                             : :Chapter 02
    00:02:12.006                             : :Chapter 03
    00:10:32.048                             : :Chapter 04
    00:21:50.058                             : :Chapter 05
    00:23:20.023                             : :Chapter 06
    
    




    [​IMG]
    [​IMG]
    720p EAC3 [​IMG]
    1080p EAC3 [​IMG]
    1080p DTS-HD [​IMG]
    x265 1080p DTS-HD [​IMG]

    [​IMG]
    720p EAC3 [​IMG]
    1080p EAC3 [​IMG]
    1080p DTS-HD [​IMG]
    x265 1080p DTS-HD [​IMG]



    Geschützter Bereich
    Registriere dich oder logge dich ein, um den Inhalt sehen zu können
     
    Zuletzt bearbeitet: 14. Okt. 2021
    rexep18263, gerdhanse, Bull und 17 anderen gefällt das.
  2. Azugo
    Azugo

    H͓̽u͓̽g͓̽o͓̽ ͓̽&͓̽ ͓̽A͓̽z͓̽u͓̽r͓̽a͓̽ Premium Otaku Gott Uploader

    Registriert seit:
    25. März 2020
    Beiträge:
    1.682
    Zustimmungen:
    11.343
    (っ◔◡◔)っ ♥ x265 online. Viel Spaß ♥
     

Diese Seite empfehlen