Wir verwenden Cookies, um deinen Aufenthalt auf Animes.so möglichst angenehm gestalten zu können. Mehr erfahren

Nourin [Jap-Dub][Ger-Sub][720p][HDTV] - Morai-Subs

Dieses Thema im Forum "Serien (GerSub)" wurde erstellt von dreambird1973, 15. Feb. 2018.

  1. dreambird1973

    dreambird1973 Kleiner Experte Otaku Experte

    Registriert seit:
    27. Mai 2013
    Beiträge:
    127
    Zustimmungen:
    458

    Nourin
    のうりん
    No-Rin



    [​IMG]


    Kurzbeschreibung:


    Spieldauer: 24min
    Genre: Romantische Komödie
    Nebengenres: Alltagsleben, Ecchi, Komödie, Romanze
    Jahr: 2014
    Sprache: Japanisch
    Untertitel: Deutsch
    Größe pro Folge:405mb
    Episodenanzahl: 12/12
    Format: MP4
    Auflösung: 720p (16:9)
    Videocodec: H264 (AVC)
    Audiocodec: AAC
    Releasegruppe: Morai-Subs
    Hoster: Share-Online


    Code:
    Format                                   : MPEG-4
    Format profile                           : Base Media
    Codec ID                                 : isom
    File size                                : 405 MiB
    Duration                                 : 24mn 0s
    Overall bit rate mode                    : Variable
    Overall bit rate                         : 2 361 Kbps
    Encoded date                             : UTC 2014-01-30 20:48:20
    Tagged date                              : UTC 2014-01-30 20:48:20
    
    Video
    ID                                       : 1
    Format                                   : AVC
    Format/Info                              : Advanced Video Codec
    Format profile                           : High@L4
    Format settings, CABAC                   : Yes
    Format settings, ReFrames                : 9 frames
    Codec ID                                 : avc1
    Codec ID/Info                            : Advanced Video Coding
    Duration                                 : 24mn 0s
    Bit rate                                 : 2 155 Kbps
    Maximum bit rate                         : 14.2 Mbps
    Width                                    : 1 280 pixels
    Height                                   : 720 pixels
    Display aspect ratio                     : 16:9
    Frame rate mode                          : Constant
    Frame rate                               : 23.976 fps
    Color space                              : YUV
    Chroma subsampling                       : 4:2:0
    Bit depth                                : 8 bits
    Scan type                                : Progressive
    Bits/(Pixel*Frame)                       : 0.098
    Stream size                              : 370 MiB (91%)
    Title                                    : Video
    Writing library                          : x264 core 125 r2208 d9d2288
    Encoding settings                        : cabac=1 / ref=9 / deblock=1:1:1 / analyse=0x3:0x133 / me=umh / subme=10 / psy=1 / psy_rd=0.60:0.15 / mixed_ref=1 / me_range=24 / chroma_me=1 / trellis=2 / 8x8dct=1 / cqm=0 / deadzone=21,11 / fast_pskip=1 / chroma_qp_offset=-3 / threads=9 / lookahead_threads=1 / sliced_threads=0 / nr=0 / decimate=1 / interlaced=0 / bluray_compat=0 / constrained_intra=0 / bframes=9 / b_pyramid=2 / b_adapt=2 / b_bias=0 / direct=3 / weightb=1 / open_gop=0 / weightp=2 / keyint=250 / keyint_min=23 / scenecut=40 / intra_refresh=0 / rc_lookahead=60 / rc=crf / mbtree=0 / crf=18.0 / qcomp=0.60 / qpmin=0 / qpmax=69 / qpstep=4 / vbv_maxrate=25000 / vbv_bufsize=25000 / crf_max=0.0 / nal_hrd=none / ip_ratio=1.40 / pb_ratio=1.30 / aq=2:0.80
    Encoded date                             : UTC 2014-01-30 20:48:20
    Tagged date                              : UTC 2014-01-30 20:48:29
    
    Audio
    ID                                       : 2
    Format                                   : AAC
    Format/Info                              : Advanced Audio Codec
    Format profile                           : LC
    Codec ID                                 : 40
    Duration                                 : 24mn 0s
    Bit rate mode                            : Variable
    Bit rate                                 : 202 Kbps
    Maximum bit rate                         : 254 Kbps
    Channel(s)                               : 2 channels
    Channel positions                        : Front: L R
    Sampling rate                            : 48.0 KHz
    Compression mode                         : Lossy
    Stream size                              : 34.8 MiB (9%)
    Language                                 : Japanese
    Encoded date                             : UTC 2014-01-30 20:48:28
    Tagged date                              : UTC 2014-01-30 20:48:29
    
    Menu
    00:00:00.000                             : Einleitung
    00:03:26.998                             : Hauptteil
    00:22:14.958                             : Ending
    00:23:45.132                             : Vorschau
    
    


    Share-Online:[​IMG]

    Geschützter Bereich
    Registriere dich oder logge dich ein, um den Inhalt sehen zu können
     
    Itow, BANDIMO, sabs0686 und 3 anderen gefällt das.