• Wie Du sicherlich schon gesehen hast, hat sich Animes.so gewaltig verändert. Klicke hier um mehr Informationen darüber zu erhalten.

Oh, Suddenly Egyptian God[Jap-Dub][Eng-Ger-Sub][720p|1080p][WebRip] - Crunchyroll

supersonik

Otaku König
Beiträge
223
Punkte Reaktionen
26.973
Punkte
98

Oh, Suddenly Egyptian God
Toutotsu ni Egypt Shin
とーとつにエジプト神
tEipQ1A.jpg


Beschreibung:
Willkommen in der Welt der ägyptischen Götter. Hier verbringen die Götter des antiken Ägyptens ihr Dasein, von Anubis bis Thoth. Was sie so alles machen? Nun, sie singen, tanzen und haben Spaß! Set spielt anderen dauernd Streiche, Ra ist dauernd auf Reisen, Medjed trägt stets eine ernste Miene und Horus arbeitet in einem Teilzeitjob. Tauche ein und erlebe, was diese Gottheiten den lieben langen Tag so für Quatsch anstellen.
by crunchyroll.de

Folgen: 10/10
Größe pro Folge: ~190 MB | ~370 MB
Releaser: Anime BluRay Junkies
Art: Lizenzrelease
Sprache: Japanisch
Untertitel: Englisch, Deutsch
Jahr: 2021
Genres: Komödie, Drama, Episodisch, Gegenwart, Parodie
Auflösung: 1280x720 | 1920x1080
Format: MKV
Quelle: WebRip
Videocodec: x264
Farbtiefe: 8bit
Audiocodec: AAC
Publisher: Typhoon Graphics Co. Ltd. | Crunchyroll
Hoster: DDownload | Rapidgator | Uploaded


Mediainfo:
Code:
[LEFT]

General
Unique ID                                : 193666378810336556606591716867018664111 (0x91B2C9AE631CE459B8FFE1F0A47928AF)
Complete name                            : Oh.Suddenly.Egyptian.God.S01E01.Subbed.AAC.720p.WebRip.x264-ABJ.mkv
Format                                   : Matroska
Format version                           : Version 4
File size                                : 186 MiB
Duration                                 : 6 min 22 s
Overall bit rate                         : 4 095 kb/s
Encoded date                             : UTC 2021-04-08 22:21:08
Writing application                      : mkvmerge v19.0.0 ('Brave Captain') 64-bit
Writing library                          : libebml v1.3.5 + libmatroska v1.4.8
Attachments                              : AndikaNewBasic-Bold.ttf / AndikaNewBasic-BoldItalic.ttf / AndikaNewBasic-Italic.ttf / AndikaNewBasic-Regular.ttf

Video
ID                                       : 1
Format                                   : AVC
Format/Info                              : Advanced Video Codec
Format profile                           : [email protected]
Format settings                          : CABAC / 6 Ref Frames
Format settings, CABAC                   : Yes
Format settings, Reference frames        : 6 frames
Codec ID                                 : V_MPEG4/ISO/AVC
Duration                                 : 6 min 21 s
Bit rate                                 : 4 000 kb/s
Width                                    : 1 280 pixels
Height                                   : 720 pixels
Display aspect ratio                     : 16:9
Frame rate mode                          : Constant
Frame rate                               : 23.976 (24000/1001) FPS
Color space                              : YUV
Chroma subsampling                       : 4:2:0
Bit depth                                : 8 bits
Scan type                                : Progressive
Bits/(Pixel*Frame)                       : 0.181
Stream size                              : 180 MiB (97%)
Writing library                          : x264 core 142
Encoding settings                        : cabac=1 / ref=6 / deblock=1:1:1 / analyse=0x3:0x113 / me=umh / subme=8 / psy=1 / psy_rd=0.40:0.00 / mixed_ref=1 / me_range=16 / chroma_me=1 / trellis=1 / 8x8dct=1 / cqm=0 / deadzone=21,11 / fast_pskip=1 / chroma_qp_offset=-2 / threads=10 / lookahead_threads=1 / sliced_threads=0 / nr=0 / decimate=1 / interlaced=0 / bluray_compat=0 / constrained_intra=0 / bframes=0 / weightp=2 / keyint=96 / keyint_min=48 / scenecut=40 / intra_refresh=0 / rc_lookahead=48 / rc=2pass / mbtree=1 / bitrate=4000 / ratetol=1.0 / qcomp=0.60 / qpmin=0 / qpmax=69 / qpstep=4 / cplxblur=20.0 / qblur=0.5 / vbv_maxrate=6000 / vbv_bufsize=9000 / nal_hrd=none / filler=0 / ip_ratio=1.40 / aq=1:0.60
Default                                  : Yes
Forced                                   : No

Audio
ID                                       : 2
Format                                   : AAC LC
Format/Info                              : Advanced Audio Codec Low Complexity
Codec ID                                 : A_AAC-2
Duration                                 : 6 min 22 s
Bit rate                                 : 128 kb/s
Channel(s)                               : 2 channels
Channel layout                           : L R
Sampling rate                            : 44.1 kHz
Frame rate                               : 43.066 FPS (1024 SPF)
Compression mode                         : Lossy
Stream size                              : 5.83 MiB (3%)
Language                                 : Japanese
Default                                  : Yes
Forced                                   : No

Text #1
ID                                       : 3
Format                                   : ASS
Codec ID                                 : S_TEXT/ASS
Codec ID/Info                            : Advanced Sub Station Alpha
Duration                                 : 5 min 57 s
Bit rate                                 : 206 b/s
Count of elements                        : 131
Compression mode                         : Lossless
Stream size                              : 9.01 KiB (0%)
Language                                 : German
Default                                  : Yes
Forced                                   : No

Text #2
ID                                       : 4
Format                                   : ASS
Codec ID                                 : S_TEXT/ASS
Codec ID/Info                            : Advanced Sub Station Alpha
Duration                                 : 5 min 42 s
Bit rate                                 : 176 b/s
Count of elements                        : 133
Compression mode                         : Lossless
Stream size                              : 7.36 KiB (0%)
Language                                 : English
Default                                  : No
Forced                                   : No
[/LEFT]
Code:
[LEFT]
General
Unique ID                                : 44958259904930269207954069408407537295 (0x21D2A559B136719FA544E5C29D2EC68F)
Complete name                            : Oh.Suddenly.Egyptian.God.S01E01.Subbed.AAC.1080p.WebRip.x264-ABJ.mkv
Format                                   : Matroska
Format version                           : Version 4
File size                                : 366 MiB
Duration                                 : 6 min 22 s
Overall bit rate                         : 8 035 kb/s
Encoded date                             : UTC 2021-04-08 22:21:08
Writing application                      : mkvmerge v19.0.0 ('Brave Captain') 64-bit
Writing library                          : libebml v1.3.5 + libmatroska v1.4.8
Attachments                              : AndikaNewBasic-Bold.ttf / AndikaNewBasic-BoldItalic.ttf / AndikaNewBasic-Italic.ttf / AndikaNewBasic-Regular.ttf

Video
ID                                       : 1
Format                                   : AVC
Format/Info                              : Advanced Video Codec
Format profile                           : [email protected]
Format settings                          : CABAC / 4 Ref Frames
Format settings, CABAC                   : Yes
Format settings, Reference frames        : 4 frames
Codec ID                                 : V_MPEG4/ISO/AVC
Duration                                 : 6 min 21 s
Bit rate                                 : 8 000 kb/s
Width                                    : 1 920 pixels
Height                                   : 1 080 pixels
Display aspect ratio                     : 16:9
Frame rate mode                          : Constant
Frame rate                               : 23.976 (24000/1001) FPS
Color space                              : YUV
Chroma subsampling                       : 4:2:0
Bit depth                                : 8 bits
Scan type                                : Progressive
Bits/(Pixel*Frame)                       : 0.161
Stream size                              : 359 MiB (98%)
Writing library                          : x264 core 142
Encoding settings                        : cabac=1 / ref=4 / deblock=1:1:1 / analyse=0x3:0x113 / me=umh / subme=8 / psy=1 / psy_rd=0.40:0.00 / mixed_ref=1 / me_range=16 / chroma_me=1 / trellis=1 / 8x8dct=1 / cqm=0 / deadzone=21,11 / fast_pskip=1 / chroma_qp_offset=-2 / threads=12 / lookahead_threads=2 / sliced_threads=0 / nr=0 / decimate=1 / interlaced=0 / bluray_compat=0 / constrained_intra=0 / bframes=0 / weightp=2 / keyint=96 / keyint_min=48 / scenecut=40 / intra_refresh=0 / rc_lookahead=48 / rc=2pass / mbtree=1 / bitrate=8000 / ratetol=1.0 / qcomp=0.60 / qpmin=0 / qpmax=69 / qpstep=4 / cplxblur=20.0 / qblur=0.5 / vbv_maxrate=12000 / vbv_bufsize=18000 / nal_hrd=none / filler=0 / ip_ratio=1.40 / aq=1:0.60
Default                                  : Yes
Forced                                   : No

Audio
ID                                       : 2
Format                                   : AAC LC
Format/Info                              : Advanced Audio Codec Low Complexity
Codec ID                                 : A_AAC-2
Duration                                 : 6 min 22 s
Bit rate                                 : 128 kb/s
Channel(s)                               : 2 channels
Channel layout                           : L R
Sampling rate                            : 44.1 kHz
Frame rate                               : 43.066 FPS (1024 SPF)
Compression mode                         : Lossy
Stream size                              : 5.83 MiB (2%)
Language                                 : Japanese
Default                                  : Yes
Forced                                   : No

Text #1
ID                                       : 3
Format                                   : ASS
Codec ID                                 : S_TEXT/ASS
Codec ID/Info                            : Advanced Sub Station Alpha
Duration                                 : 5 min 57 s
Bit rate                                 : 206 b/s
Count of elements                        : 131
Compression mode                         : Lossless
Stream size                              : 9.01 KiB (0%)
Language                                 : German
Default                                  : Yes
Forced                                   : No

Text #2
ID                                       : 4
Format                                   : ASS
Codec ID                                 : S_TEXT/ASS
Codec ID/Info                            : Advanced Sub Station Alpha
Duration                                 : 5 min 42 s
Bit rate                                 : 176 b/s
Count of elements                        : 133
Compression mode                         : Lossless
Stream size                              : 7.36 KiB (0%)
Language                                 : English
Default                                  : No
Forced                                   : No
[/LEFT]
720p:
0AACFFFF66.png

1080p:
EC27102CBB.png

To view the content, you need to Sign In or Register.

 
Oben