1. Die erweiterte Suche funktioniert wieder. Die LiveSearch wird gegen Ende der Woche wieder funktionieren.

Wir verwenden Cookies, um deinen Aufenthalt auf Animes.so möglichst angenehm gestalten zu können. Mehr erfahren

Pastel Memories [Laufend] [Jap-Dub][Ger-Sub][720p|1080p|1080p Plus][WebRip] - AoD

Dieses Thema im Forum "Serien (GerSub)" wurde erstellt von Fuuko, 11. Jan. 2019.

  1. Fuuko

    Fuuko Freigeschalteter Otaku Otaku Novize

    Registriert seit:
    19. Sep. 2018
    Beiträge:
    34
    Zustimmungen:
    760
    Pastel Memories

    [​IMG]

    [​IMG]
    Akihabara ist das Technologiezentrum Tokyos und die Pilgerstätte aller Otakus. Doch die Virus genannten, geheimnisvollen Kreaturen lassen nach und nach die Erinnerungen der Anime- und Manga-Fans an ihr geliebtes Hobby verblassen. Akihabara droht, zu einem langweiligen Business-Bezirk zu werden. Nun liegt es an zwölf Mädchen aus einem Maid-Café, den Virus mit ihren magischen Fähigkeiten entgegenzutreten …
    [​IMG]
    Episoden:
    02 / 12
    Spieldauer: 24 Min.
    Source: WebRip
    Format: MKV
    Video-Codec: x264
    Audio-Codec: AAC
    Sprache: Japanisch
    Untertitel: Deutsch
    Publisher: Kazé Deutschland
    Auflösung: 1280x720 | 1920x1080 | 1920x1080 Plus
    Größe: 300MB | 500MB | 1200MB
    Code:
    Complete name               : Pastel.Memories.E01.GerSub.720p.WebHD.x264-Fuuko.mkv
    Format                      : Matroska
    Format version              : Version 4
    File size                   : 285 MiB
    Duration                    : 23 min 39 s
    Overall bit rate            : 1 683 kb/s
    Encoded date                : UTC 2019-01-11 20:00:01
    Writing application         : mkvmerge v10.0.0 ('To Drown In You') 64bit
    Writing library             : libebml v1.3.4 + libmatroska v1.4.5
    
    Video
    ID                          : 1
    Format                      : AVC
    Format/Info                 : Advanced Video Codec
    Format profile              : High@L4
    Format settings             : CABAC / 9 Ref Frames
    Format settings, CABAC      : Yes
    Format settings, ReFrames   : 9 frames
    Codec ID                    : V_MPEG4/ISO/AVC
    Duration                    : 23 min 39 s
    Bit rate                    : 1 424 kb/s
    Width                       : 1 280 pixels
    Height                      : 720 pixels
    Display aspect ratio        : 16:9
    Frame rate mode             : Constant
    Frame rate                  : 23.976 (24000/1001) FPS
    Color space                 : YUV
    Chroma subsampling          : 4:2:0
    Bit depth                   : 8 bits
    Scan type                   : Progressive
    Bits/(Pixel*Frame)          : 0.064
    Stream size                 : 241 MiB (85%)
    Writing library             : x264 core 157 r2935 545de2f
    Encoding settings           : cabac=1 / ref=9 / deblock=1:0:-1 / analyse=0x3:0x133 / me=umh / subme=10 / psy=1 / psy_rd=0.60:0.10 / mixed_ref=1 / me_range=24 / chroma_me=1 / trellis=2 / 8x8dct=1 / cqm=0 / deadzone=21,11 / fast_pskip=1 / chroma_qp_offset=-3 / threads=12 / lookahead_threads=3 / sliced_threads=0 / nr=0 / decimate=0 / interlaced=0 / bluray_compat=0 / constrained_intra=0 / bframes=16 / b_pyramid=2 / b_adapt=2 / b_bias=0 / direct=3 / weightb=1 / open_gop=0 / weightp=2 / keyint=192 / keyint_min=19 / scenecut=0 / intra_refresh=0 / rc_lookahead=80 / rc=crf / mbtree=1 / crf=17.0 / qcomp=0.60 / qpmin=0 / qpmax=69 / qpstep=4 / vbv_maxrate=4096 / vbv_bufsize=10240 / crf_max=0.0 / nal_hrd=none / filler=0 / ip_ratio=1.40 / aq=3:1.10
    Default                     : Yes
    Forced                      : No
    
    Audio
    ID                          : 2
    Format                      : AAC LC
    Format/Info                 : Advanced Audio Codec Low Complexity
    Codec ID                    : A_AAC-2
    Duration                    : 23 min 39 s
    Bit rate                    : 256 kb/s
    Channel(s)                  : 2 channels
    Channel layout              : L R
    Sampling rate               : 48.0 kHz
    Frame rate                  : 46.875 FPS (1024 SPF)
    Compression mode            : Lossy
    Delay relative to video     : -83 ms
    Stream size                 : 43.3 MiB (15%)
    Default                     : Yes
    Forced                      : No
    Code:
    Complete name               : Pastel.Memories.E01.GerSub.1080p.WebHD.x264-Fuuko.mkv
    Format                      : Matroska
    Format version              : Version 4
    File size                   : 476 MiB
    Duration                    : 23 min 39 s
    Overall bit rate            : 2 811 kb/s
    Encoded date                : UTC 2019-01-11 20:00:07
    Writing application         : mkvmerge v10.0.0 ('To Drown In You') 64bit
    Writing library             : libebml v1.3.4 + libmatroska v1.4.5
    
    Video
    ID                          : 1
    Format                      : AVC
    Format/Info                 : Advanced Video Codec
    Format profile              : High@L5
    Format settings             : CABAC / 12 Ref Frames
    Format settings, CABAC      : Yes
    Format settings, ReFrames   : 12 frames
    Codec ID                    : V_MPEG4/ISO/AVC
    Duration                    : 23 min 39 s
    Bit rate                    : 2 553 kb/s
    Width                       : 1 920 pixels
    Height                      : 1 080 pixels
    Display aspect ratio        : 16:9
    Frame rate mode             : Constant
    Frame rate                  : 23.976 (24000/1001) FPS
    Color space                 : YUV
    Chroma subsampling          : 4:2:0
    Bit depth                   : 8 bits
    Scan type                   : Progressive
    Bits/(Pixel*Frame)          : 0.051
    Stream size                 : 432 MiB (91%)
    Writing library             : x264 core 157 r2935 545de2f
    Encoding settings           : cabac=1 / ref=12 / deblock=1:0:-1 / analyse=0x3:0x133 / me=umh / subme=10 / psy=1 / psy_rd=0.60:0.10 / mixed_ref=1 / me_range=24 / chroma_me=1 / trellis=2 / 8x8dct=1 / cqm=0 / deadzone=21,11 / fast_pskip=1 / chroma_qp_offset=-3 / threads=24 / lookahead_threads=6 / sliced_threads=0 / nr=0 / decimate=0 / interlaced=0 / bluray_compat=0 / constrained_intra=0 / bframes=16 / b_pyramid=2 / b_adapt=2 / b_bias=0 / direct=3 / weightb=1 / open_gop=0 / weightp=2 / keyint=192 / keyint_min=19 / scenecut=0 / intra_refresh=0 / rc_lookahead=80 / rc=crf / mbtree=1 / crf=18.0 / qcomp=0.60 / qpmin=0 / qpmax=69 / qpstep=4 / vbv_maxrate=6144 / vbv_bufsize=15360 / crf_max=0.0 / nal_hrd=none / filler=0 / ip_ratio=1.40 / aq=3:1.10
    Default                     : Yes
    Forced                      : No
    
    Audio
    ID                          : 2
    Format                      : AAC LC
    Format/Info                 : Advanced Audio Codec Low Complexity
    Codec ID                    : A_AAC-2
    Duration                    : 23 min 39 s
    Bit rate                    : 256 kb/s
    Channel(s)                  : 2 channels
    Channel layout              : L R
    Sampling rate               : 48.0 kHz
    Frame rate                  : 46.875 FPS (1024 SPF)
    Compression mode            : Lossy
    Delay relative to video     : -83 ms
    Stream size                 : 43.3 MiB (9%)
    Default                     : Yes
    Forced                      : No
    Code:
    Complete name               : Pastel.Memories.E01.GerSub.1080p.Plus.WebHD.x264-Fuuko.mkv
    Format                      : Matroska
    Format version              : Version 4
    File size                   : 1.09 GiB
    Duration                    : 23 min 39 s
    Overall bit rate            : 6 617 kb/s
    Encoded date                : UTC 2019-01-11 20:02:26
    Writing application         : mkvmerge v10.0.0 ('To Drown In You') 64bit
    Writing library             : libebml v1.3.4 + libmatroska v1.4.5
    
    Video
    ID                          : 1
    Format                      : AVC
    Format/Info                 : Advanced Video Codec
    Format profile              : High@L5
    Format settings             : CABAC / 12 Ref Frames
    Format settings, CABAC      : Yes
    Format settings, ReFrames   : 12 frames
    Codec ID                    : V_MPEG4/ISO/AVC
    Duration                    : 23 min 39 s
    Bit rate                    : 6 358 kb/s
    Width                       : 1 920 pixels
    Height                      : 1 080 pixels
    Display aspect ratio        : 16:9
    Frame rate mode             : Constant
    Frame rate                  : 23.976 (24000/1001) FPS
    Color space                 : YUV
    Chroma subsampling          : 4:2:0
    Bit depth                   : 8 bits
    Scan type                   : Progressive
    Bits/(Pixel*Frame)          : 0.128
    Stream size                 : 1.05 GiB (96%)
    Writing library             : x264 core 157 r2935 545de2f
    Encoding settings           : cabac=1 / ref=12 / deblock=1:0:-1 / analyse=0x3:0x133 / me=umh / subme=10 / psy=1 / psy_rd=0.70:0.15 / mixed_ref=1 / me_range=24 / chroma_me=1 / trellis=2 / 8x8dct=1 / cqm=0 / deadzone=21,11 / fast_pskip=1 / chroma_qp_offset=-3 / threads=24 / lookahead_threads=6 / sliced_threads=0 / nr=0 / decimate=0 / interlaced=0 / bluray_compat=0 / constrained_intra=0 / bframes=16 / b_pyramid=2 / b_adapt=2 / b_bias=0 / direct=3 / weightb=1 / open_gop=0 / weightp=2 / keyint=192 / keyint_min=19 / scenecut=0 / intra_refresh=0 / rc_lookahead=80 / rc=crf / mbtree=1 / crf=15.0 / qcomp=0.60 / qpmin=0 / qpmax=69 / qpstep=4 / vbv_maxrate=20480 / vbv_bufsize=40960 / crf_max=0.0 / nal_hrd=none / filler=0 / ip_ratio=1.40 / aq=3:1.10
    Default                     : Yes
    Forced                      : No
    
    Audio
    ID                          : 2
    Format                      : AAC LC
    Format/Info                 : Advanced Audio Codec Low Complexity
    Codec ID                    : A_AAC-2
    Duration                    : 23 min 39 s
    Bit rate                    : 256 kb/s
    Channel(s)                  : 2 channels
    Channel layout              : L R
    Sampling rate               : 48.0 kHz
    Frame rate                  : 46.875 FPS (1024 SPF)
    Compression mode            : Lossy
    Delay relative to video     : -83 ms
    Stream size                 : 43.3 MiB (4%)
    Default                     : Yes
    Forced                      : No
    [​IMG]
    720p [​IMG]
    1080p [​IMG]
    1080p Plus [​IMG]

    Geschützter Bereich
    Registriere dich oder logge dich ein, um den Inhalt sehen zu können
     
    Zuletzt bearbeitet: 14. Jan. 2019 um 18:58 Uhr
  2. Fuuko

    Fuuko Freigeschalteter Otaku Otaku Novize

    Registriert seit:
    19. Sep. 2018
    Beiträge:
    34
    Zustimmungen:
    760
    ~ Episode 02 hinzugefügt ~
     
    chopper23 gefällt das.
1!-- -->