1. Die erweiterte Suche funktioniert wieder. Die LiveSearch ist vorübergehend deaktiviert

Wir verwenden Cookies, um deinen Aufenthalt auf Animes.so möglichst angenehm gestalten zu können. Mehr erfahren

Phantasy Star Online 2 The Animation [Ger-Jap-Dub][Ger-Sub][MP3|AC-3|DTS-HD][404p|720p|1080p][BluRay] - AST4u

Dieses Thema im Forum "Serien (GerDub)" wurde erstellt von Ta@, 18. Juli 2018.

  1. Ta@

    Ta@ Erfahrener Otaku Otaku König

    Registriert seit:
    7. Juli 2016
    Beiträge:
    297
    Zustimmungen:
    18.343
    Zuletzt bearbeitet: 11. Nov. 2019
  2. ClipperSunny

    ClipperSunny 100% Anime Otaku König

    Registriert seit:
    27. Jan. 2018
    Beiträge:
    326
    Zustimmungen:
    11.117
    Phantasy Star Online 2 The Animation
    Phantasy Star Online 2 The Animation
    Phantasy Star Online 2 The Animation

    [​IMG]
    Phantasy Star Online 2 The Animation [Ger-Jap-Dub][Ger-Sub][MP3|AC-3|DTS-HD][408p|720p|1080p][BluRay] - AST4u

    Animeinformationen
    Kurzbeschreibung by AniSearch.de
    Itsuki Tachibana ist Student an der Seiga Akademie, einem gemischten Internat am Rande der Stadt. Im zweiten Semester wird er auf einmal zu der angesehenen Vorsitzenden, Rina Izumi, in den Beratungsraum geladen. Noch ahnt er nicht, was ihn dort erwartet …


    Studio: Telecom Animation Film Co., Ltd.
    Genre: Action
    Nebengenre: Abenteuer, Action, Alltagsleben, Fantasy, Komödie, Mecha, Romanze, Scifi
    Spieldauer: 24 Min.
    Jahr: 2016

    Releaseinformationen
    Episoden: 4 / 12
    Sprache:
    Deutsch, Japanisch
    Untertitel: Deutsch
    Publisher: KSM GmbH
    Release-Gruppe: AST4u
    Quelle: BluRay
    Format: AVI | MKV
    Video-Codec: XviD | x264
    Farbtiefe: 8bit
    Audio-Codec: MP3 | AC3 | DTS-HD
    Audio-Kanäle: GER MP3 2.0 | JAP MP3 2.0 || GER AC3 5.1 | JAP AC3 2.0 || GER AC3 5.1 | JAP AC3 2.0 || GER DTS-HD 5.1 | JAP DTS-HD 2.0
    Auflösung: 408p | 720p | 1080p
    Größe: 334 MB | 599 MB | 1.08 GB | 1.40 GB
    Hoster: Share-Online.biz

    Mediainfo
    Code:
    General
    Complete name                            : Phantasy.Star.Onlne.2-The.Anmaton.Ep.01.German.DL.MP3.BluRay.Xvd-AST4u
    Format                                   : Matroska
    Format version                           : Version 4 / Version 2
    File size                                : 334 MiB
    Duration                                 : 24 min 34 s
    Overall bit rate                         : 1 901 kb/s
    Movie name                               : S01E01 Sassenach
    Encoded date                             : UTC 2018-07-18 14:40:13
    Writing application                      : mkvmerge v8.1.0 ('Psychedelic Postcard') 32bit
    Writing library                          : libebml v1.3.1 + libmatroska v1.4.2
    FileExtension_Invalid                    : mkv mk3d mka mks
    
    Video
    ID                                       : 3
    Format                                   : MPEG-4 Visual
    Format profile                           : Advanced Simple@L5
    Format settings                          : BVOP2
    Format settings, BVOP                    : 2
    Format settings, QPel                    : No
    Format settings, GMC                     : No warppoints
    Format settings, Matrix                  : Default (MPEG)
    Codec ID                                 : V_MS/VFW/FOURCC / XVID
    Codec ID/Hint                            : XviD
    Duration                                 : 24 min 34 s
    Bit rate                                 : 1 499 kb/s
    Width                                    : 720 pixels
    Height                                   : 408 pixels
    Display aspect ratio                     : 16:9
    Frame rate mode                          : Constant
    Frame rate                               : 23.976 (24000/1001) FPS
    Color space                              : YUV
    Chroma subsampling                       : 4:2:0
    Bit depth                                : 8 bits
    Scan type                                : Progressive
    Compression mode                         : Lossy
    Bits/(Pixel*Frame)                       : 0.213
    Stream size                              : 263 MiB (79%)
    Writing library                          : XviD 67
    Default                                  : Yes
    Forced                                   : No
    
    Audio #1
    ID                                       : 4
    Format                                   : MPEG Audio
    Format version                           : Version 1
    Format profile                           : Layer 3
    Format settings                          : Joint stereo
    Codec ID                                 : A_MPEG/L3
    Codec ID/Hint                            : MP3
    Duration                                 : 24 min 34 s
    Bit rate mode                            : Constant
    Bit rate                                 : 192 kb/s
    Channel(s)                               : 2 channels
    Sampling rate                            : 48.0 kHz
    Frame rate                               : 41.667 FPS (1152 SPF)
    Compression mode                         : Lossy
    Stream size                              : 33.7 MiB (10%)
    Writing library                          : LAME3.99r
    Encoding settings                        : -m j -V 4 -q 2 -lowpass 18.6 -b 192
    Language                                 : German
    Default                                  : Yes
    Forced                                   : No
    
    Audio #2
    ID                                       : 5
    Format                                   : MPEG Audio
    Format version                           : Version 1
    Format profile                           : Layer 3
    Format settings                          : Joint stereo
    Codec ID                                 : A_MPEG/L3
    Codec ID/Hint                            : MP3
    Duration                                 : 24 min 34 s
    Bit rate mode                            : Constant
    Bit rate                                 : 192 kb/s
    Channel(s)                               : 2 channels
    Sampling rate                            : 48.0 kHz
    Frame rate                               : 41.667 FPS (1152 SPF)
    Compression mode                         : Lossy
    Stream size                              : 33.7 MiB (10%)
    Writing library                          : LAME3.99r
    Encoding settings                        : -m j -V 4 -q 2 -lowpass 18.6 -b 192
    Language                                 : Japanese
    Default                                  : No
    Forced                                   : No
    
    Text #1
    ID                                       : 1
    Format                                   : PGS
    Muxing mode                              : zlib
    Codec ID                                 : S_HDMV/PGS
    Codec ID/Info                            : Picture based subtitle format used on BDs/HD-DVDs
    Duration                                 : 22 min 24 s
    Bit rate                                 : 15.1 kb/s
    Count of elements                        : 583
    Stream size                              : 2.41 MiB (1%)
    Language                                 : German
    Default                                  : Yes
    Forced                                   : No
    
    Text #2
    ID                                       : 2
    Format                                   : PGS
    Muxing mode                              : zlib
    Codec ID                                 : S_HDMV/PGS
    Codec ID/Info                            : Picture based subtitle format used on BDs/HD-DVDs
    Duration                                 : 21 min 56 s
    Bit rate                                 : 1 681 b/s
    Count of elements                        : 61
    Stream size                              : 270 KiB (0%)
    Language                                 : German
    Default                                  : No
    Forced                                   : No
    
    Code:
    General
    Complete name                            : Phantasy.Star.Onlne.2-The.Anmaton.Ep.01.German.AC3.DL.720p.BluRay.x264-AST4u
    Format                                   : Matroska
    Format version                           : Version 4 / Version 2
    File size                                : 599 MiB
    Duration                                 : 24 min 34 s
    Overall bit rate                         : 3 405 kb/s
    Encoded date                             : UTC 2018-07-18 14:35:09
    Writing application                      : mkvmerge v8.1.0 ('Psychedelic Postcard') 32bit
    Writing library                          : libebml v1.3.1 + libmatroska v1.4.2
    
    Video
    ID                                       : 3
    Format                                   : AVC
    Format/Info                              : Advanced Video Codec
    Format profile                           : High@L4.1
    Format settings                          : CABAC / 6 Ref Frames
    Format settings, CABAC                   : Yes
    Format settings, ReFrames                : 6 frames
    Codec ID                                 : V_MPEG4/ISO/AVC
    Duration                                 : 24 min 34 s
    Bit rate                                 : 2 492 kb/s
    Width                                    : 1 280 pixels
    Height                                   : 720 pixels
    Display aspect ratio                     : 16:9
    Frame rate mode                          : Constant
    Frame rate                               : 23.976 (24000/1001) FPS
    Color space                              : YUV
    Chroma subsampling                       : 4:2:0
    Bit depth                                : 8 bits
    Scan type                                : Progressive
    Bits/(Pixel*Frame)                       : 0.113
    Stream size                              : 438 MiB (73%)
    Writing library                          : x264 core 148 r2638 7599210
    Encoding settings                        : cabac=1 / ref=6 / deblock=1:1:1 / analyse=0x3:0x113 / me=hex / subme=9 / psy=1 / psy_rd=0.40:0.00 / mixed_ref=1 / me_range=16 / chroma_me=1 / trellis=1 / 8x8dct=1 / cqm=0 / deadzone=21,11 / fast_pskip=1 / chroma_qp_offset=-2 / threads=12 / lookahead_threads=1 / sliced_threads=0 / nr=0 / decimate=1 / interlaced=0 / bluray_compat=0 / constrained_intra=0 / bframes=5 / b_pyramid=2 / b_adapt=2 / b_bias=0 / direct=1 / weightb=1 / open_gop=0 / weightp=2 / keyint=240 / keyint_min=23 / scenecut=40 / intra_refresh=0 / rc_lookahead=40 / rc=crf / mbtree=1 / crf=16.0 / qcomp=0.60 / qpmin=0 / qpmax=69 / qpstep=4 / vbv_maxrate=62500 / vbv_bufsize=78125 / crf_max=0.0 / nal_hrd=none / filler=0 / ip_ratio=1.40 / aq=1:0.60
    Default                                  : Yes
    Forced                                   : No
    
    Audio #1
    ID                                       : 4
    Format                                   : AC-3
    Format/Info                              : Audio Coding 3
    Codec ID                                 : A_AC3
    Duration                                 : 24 min 34 s
    Bit rate mode                            : Constant
    Bit rate                                 : 448 kb/s
    Channel(s)                               : 6 channels
    Channel positions                        : Front: L C R, Side: L R, LFE
    Sampling rate                            : 48.0 kHz
    Frame rate                               : 31.250 FPS (1536 SPF)
    Bit depth                                : 16 bits
    Compression mode                         : Lossy
    Stream size                              : 78.7 MiB (13%)
    Language                                 : German
    Service kind                             : Complete Main
    Default                                  : Yes
    Forced                                   : No
    
    Audio #2
    ID                                       : 5
    Format                                   : AC-3
    Format/Info                              : Audio Coding 3
    Codec ID                                 : A_AC3
    Duration                                 : 24 min 34 s
    Bit rate mode                            : Constant
    Bit rate                                 : 448 kb/s
    Channel(s)                               : 2 channels
    Channel positions                        : Front: L R
    Sampling rate                            : 48.0 kHz
    Frame rate                               : 31.250 FPS (1536 SPF)
    Bit depth                                : 16 bits
    Compression mode                         : Lossy
    Stream size                              : 78.7 MiB (13%)
    Language                                 : Japanese
    Service kind                             : Complete Main
    Default                                  : No
    Forced                                   : No
    
    Text #1
    ID                                       : 1
    Format                                   : PGS
    Muxing mode                              : zlib
    Codec ID                                 : S_HDMV/PGS
    Codec ID/Info                            : Picture based subtitle format used on BDs/HD-DVDs
    Duration                                 : 22 min 24 s
    Bit rate                                 : 15.1 kb/s
    Count of elements                        : 583
    Stream size                              : 2.41 MiB (0%)
    Language                                 : German
    Default                                  : Yes
    Forced                                   : No
    
    Text #2
    ID                                       : 2
    Format                                   : PGS
    Muxing mode                              : zlib
    Codec ID                                 : S_HDMV/PGS
    Codec ID/Info                            : Picture based subtitle format used on BDs/HD-DVDs
    Duration                                 : 21 min 56 s
    Bit rate                                 : 1 681 b/s
    Count of elements                        : 61
    Stream size                              : 270 KiB (0%)
    Language                                 : German
    Default                                  : No
    Forced                                   : No
    
    Code:
    General
    Complete name                            : Phantasy.Star.Onlne.2-The.Anmaton.Ep.01.German.AC3.DL.1080p.BluRay.x264-AST4u
    Format                                   : Matroska
    Format version                           : Version 4 / Version 2
    File size                                : 1.08 GiB
    Duration                                 : 24 min 34 s
    Overall bit rate                         : 6 282 kb/s
    Encoded date                             : UTC 2018-07-18 14:38:05
    Writing application                      : mkvmerge v8.1.0 ('Psychedelic Postcard') 32bit
    Writing library                          : libebml v1.3.1 + libmatroska v1.4.2
    
    Video
    ID                                       : 3
    Format                                   : AVC
    Format/Info                              : Advanced Video Codec
    Format profile                           : High@L4.1
    Format settings                          : CABAC / 4 Ref Frames
    Format settings, CABAC                   : Yes
    Format settings, ReFrames                : 4 frames
    Codec ID                                 : V_MPEG4/ISO/AVC
    Duration                                 : 24 min 34 s
    Bit rate                                 : 5 368 kb/s
    Width                                    : 1 920 pixels
    Height                                   : 1 080 pixels
    Display aspect ratio                     : 16:9
    Frame rate mode                          : Constant
    Frame rate                               : 23.976 (24000/1001) FPS
    Color space                              : YUV
    Chroma subsampling                       : 4:2:0
    Bit depth                                : 8 bits
    Scan type                                : Progressive
    Bits/(Pixel*Frame)                       : 0.108
    Stream size                              : 944 MiB (85%)
    Writing library                          : x264 core 148 r2638 7599210
    Encoding settings                        : cabac=1 / ref=4 / deblock=1:1:1 / analyse=0x3:0x113 / me=hex / subme=9 / psy=1 / psy_rd=0.40:0.00 / mixed_ref=1 / me_range=16 / chroma_me=1 / trellis=1 / 8x8dct=1 / cqm=0 / deadzone=21,11 / fast_pskip=1 / chroma_qp_offset=-2 / threads=24 / lookahead_threads=2 / sliced_threads=0 / nr=0 / decimate=1 / interlaced=0 / bluray_compat=0 / constrained_intra=0 / bframes=5 / b_pyramid=2 / b_adapt=2 / b_bias=0 / direct=1 / weightb=1 / open_gop=0 / weightp=2 / keyint=240 / keyint_min=23 / scenecut=40 / intra_refresh=0 / rc_lookahead=40 / rc=crf / mbtree=1 / crf=16.0 / qcomp=0.60 / qpmin=0 / qpmax=69 / qpstep=4 / vbv_maxrate=62500 / vbv_bufsize=78125 / crf_max=0.0 / nal_hrd=none / filler=0 / ip_ratio=1.40 / aq=1:0.60
    Default                                  : Yes
    Forced                                   : No
    
    Audio #1
    ID                                       : 4
    Format                                   : AC-3
    Format/Info                              : Audio Coding 3
    Codec ID                                 : A_AC3
    Duration                                 : 24 min 34 s
    Bit rate mode                            : Constant
    Bit rate                                 : 448 kb/s
    Channel(s)                               : 6 channels
    Channel positions                        : Front: L C R, Side: L R, LFE
    Sampling rate                            : 48.0 kHz
    Frame rate                               : 31.250 FPS (1536 SPF)
    Bit depth                                : 16 bits
    Compression mode                         : Lossy
    Stream size                              : 78.7 MiB (7%)
    Language                                 : German
    Service kind                             : Complete Main
    Default                                  : Yes
    Forced                                   : No
    
    Audio #2
    ID                                       : 5
    Format                                   : AC-3
    Format/Info                              : Audio Coding 3
    Codec ID                                 : A_AC3
    Duration                                 : 24 min 34 s
    Bit rate mode                            : Constant
    Bit rate                                 : 448 kb/s
    Channel(s)                               : 2 channels
    Channel positions                        : Front: L R
    Sampling rate                            : 48.0 kHz
    Frame rate                               : 31.250 FPS (1536 SPF)
    Bit depth                                : 16 bits
    Compression mode                         : Lossy
    Stream size                              : 78.7 MiB (7%)
    Language                                 : Japanese
    Service kind                             : Complete Main
    Default                                  : No
    Forced                                   : No
    
    Text #1
    ID                                       : 1
    Format                                   : PGS
    Muxing mode                              : zlib
    Codec ID                                 : S_HDMV/PGS
    Codec ID/Info                            : Picture based subtitle format used on BDs/HD-DVDs
    Duration                                 : 22 min 24 s
    Bit rate                                 : 15.1 kb/s
    Count of elements                        : 583
    Stream size                              : 2.41 MiB (0%)
    Language                                 : German
    Default                                  : Yes
    Forced                                   : No
    
    Text #2
    ID                                       : 2
    Format                                   : PGS
    Muxing mode                              : zlib
    Codec ID                                 : S_HDMV/PGS
    Codec ID/Info                            : Picture based subtitle format used on BDs/HD-DVDs
    Duration                                 : 21 min 56 s
    Bit rate                                 : 1 681 b/s
    Count of elements                        : 61
    Stream size                              : 270 KiB (0%)
    Language                                 : German
    Default                                  : No
    Forced                                   : No
    
    Code:
    General
    Complete name                            : Phantasy.Star.Onlne.2-The.Anmaton.Ep.01.German.DTS.5.1.DL.1080p.BluRay.x264-AST4u
    Format                                   : Matroska
    Format version                           : Version 4 / Version 2
    File size                                : 1.40 GiB
    Duration                                 : 24 min 34 s
    Overall bit rate                         : 8 149 kb/s
    Encoded date                             : UTC 2018-07-18 14:38:32
    Writing application                      : mkvmerge v8.1.0 ('Psychedelic Postcard') 32bit
    Writing library                          : libebml v1.3.1 + libmatroska v1.4.2
    
    Video
    ID                                       : 5
    Format                                   : AVC
    Format/Info                              : Advanced Video Codec
    Format profile                           : High@L4.1
    Format settings                          : CABAC / 4 Ref Frames
    Format settings, CABAC                   : Yes
    Format settings, ReFrames                : 4 frames
    Codec ID                                 : V_MPEG4/ISO/AVC
    Duration                                 : 24 min 34 s
    Bit rate                                 : 5 368 kb/s
    Width                                    : 1 920 pixels
    Height                                   : 1 080 pixels
    Display aspect ratio                     : 16:9
    Frame rate mode                          : Constant
    Frame rate                               : 23.976 (24000/1001) FPS
    Color space                              : YUV
    Chroma subsampling                       : 4:2:0
    Bit depth                                : 8 bits
    Scan type                                : Progressive
    Bits/(Pixel*Frame)                       : 0.108
    Stream size                              : 944 MiB (66%)
    Writing library                          : x264 core 148 r2638 7599210
    Encoding settings                        : cabac=1 / ref=4 / deblock=1:1:1 / analyse=0x3:0x113 / me=hex / subme=9 / psy=1 / psy_rd=0.40:0.00 / mixed_ref=1 / me_range=16 / chroma_me=1 / trellis=1 / 8x8dct=1 / cqm=0 / deadzone=21,11 / fast_pskip=1 / chroma_qp_offset=-2 / threads=24 / lookahead_threads=2 / sliced_threads=0 / nr=0 / decimate=1 / interlaced=0 / bluray_compat=0 / constrained_intra=0 / bframes=5 / b_pyramid=2 / b_adapt=2 / b_bias=0 / direct=1 / weightb=1 / open_gop=0 / weightp=2 / keyint=240 / keyint_min=23 / scenecut=40 / intra_refresh=0 / rc_lookahead=40 / rc=crf / mbtree=1 / crf=16.0 / qcomp=0.60 / qpmin=0 / qpmax=69 / qpstep=4 / vbv_maxrate=62500 / vbv_bufsize=78125 / crf_max=0.0 / nal_hrd=none / filler=0 / ip_ratio=1.40 / aq=1:0.60
    Default                                  : Yes
    Forced                                   : No
    
    Audio #1
    ID                                       : 1
    Format                                   : DTS
    Format/Info                              : Digital Theater Systems
    Format profile                           : MA / Core
    Codec ID                                 : A_DTS
    Duration                                 : 24 min 34 s
    Bit rate mode                            : Variable / Constant
    Bit rate                                 : 1 709 kb/s / 768 kb/s
    Channel(s)                               : 6 channels
    Channel positions                        : Front: L C R, Side: L R, LFE
    Sampling rate                            : 48.0 kHz
    Frame rate                               : 93.750 FPS (512 SPF)
    Bit depth                                : 16 bits
    Compression mode                         : Lossless / Lossy
    Stream size                              : 300 MiB (21%)
    Language                                 : German
    Default                                  : Yes
    Forced                                   : No
    
    Audio #2
    ID                                       : 2
    Format                                   : DTS
    Format/Info                              : Digital Theater Systems
    Format profile                           : MA / Core
    Codec ID                                 : A_DTS
    Duration                                 : 24 min 34 s
    Bit rate mode                            : Variable / Constant
    Bit rate                                 : 1 052 kb/s / 768 kb/s
    Channel(s)                               : 2 channels
    Channel positions                        :  / Front: L R
    Sampling rate                            : 48.0 kHz
    Frame rate                               : 93.750 FPS (512 SPF)
    Bit depth                                : 16 bits
    Compression mode                         : Lossless / Lossy
    Stream size                              : 185 MiB (13%)
    Language                                 : Japanese
    Default                                  : No
    Forced                                   : No
    
    Text #1
    ID                                       : 3
    Format                                   : PGS
    Muxing mode                              : zlib
    Codec ID                                 : S_HDMV/PGS
    Codec ID/Info                            : Picture based subtitle format used on BDs/HD-DVDs
    Duration                                 : 22 min 24 s
    Bit rate                                 : 15.1 kb/s
    Count of elements                        : 583
    Stream size                              : 2.41 MiB (0%)
    Language                                 : German
    Default                                  : Yes
    Forced                                   : No
    
    Text #2
    ID                                       : 4
    Format                                   : PGS
    Muxing mode                              : zlib
    Codec ID                                 : S_HDMV/PGS
    Codec ID/Info                            : Picture based subtitle format used on BDs/HD-DVDs
    Duration                                 : 21 min 56 s
    Bit rate                                 : 1 681 b/s
    Count of elements                        : 61
    Stream size                              : 270 KiB (0%)
    Language                                 : German
    Default                                  : No
    Forced                                   : No
    
    [​IMG]
    Onlinestatus:
    [​IMG]Xvid MP3 | [​IMG]720p AC3 | [​IMG]1080p AC3 | [​IMG]1080p DTS-HD
    Geschützter Bereich
    Registriere dich oder logge dich ein, um den Inhalt sehen zu können
     
    halti, chopper23, skylier und 33 anderen gefällt das.
  3. Uploading123

    Uploading123 High Quality Anime Nolife

    Registriert seit:
    7. März 2013
    Beiträge:
    754
    Zustimmungen:
    18.607

    Phantasy Star Online 2-The Animation

    [​IMG]

    .:Beschreibung:.
    Itsuki Tachibana ist Student an der Seiga Akademie, einem gemischten Internat am Rande der Stadt. Im zweiten Semester wird er auf einmal zu der angesehenen Vorsitzenden, Rina Izumi, in den Beratungsraum geladen. Noch ahnt er nicht, was ihn dort erwartet …

    .:Info:.
    Größe: 24254 MB
    Laufzeit: 24 Min.
    Format: .mkv
    Video Stream: BD
    Video Codec: MPEG-4 H.264 / AVC
    Audio Stream: DTS-HD MA 5.1
    Sprache/n: GER, JPN
    Untertitel: GER
    Releaser: AST4u
    Episodenanzahl: 12/12
    Hoster: SO, RG

    .:NFO:.
    Code:
    Phantasy.Star.Online.2-The.Animation.Ep.01-04.German.DTS.5.1.DL.1080p.BluRay.x264-AST4u
      (NEU)
    
    Originaltitel: Phantasy Star Online 2 The Animation
    Sprache: Deutsch, Japanisch
    Untertitel: Deutsch
    FSK: 12 Jahre
    Erscheinungstermin: 19.07.2018 (NEU)
    Genre: Action, Adventure, Fantasy, Meccha, Comedy, Romance, Scifi
    Source: BluRay
    Releasedatum: 18.07.2018
    
    Episoden...............: 01-04 / 12
    
    Format                                   : Matroska
    Dateigroesse                             : 5.45 GB
    Dauer                                    : 04 x 24 Min
    Gesamte Bitrate                          : 8 469 kb/s
    
    Video
    Format                                   : AVC
    Format-Profil                            : High@L4.1
    Bitraten-Modus                           : variabel
    Bitrate                                  : crf 16
    Breite                                   : 1 920 Pixel
    H he                                     : 1 080 Pixel
    BildseitenverhSltnis                     : 16:9
    Modus der Bildwiederholungsrate          : konstant
    Bildwiederholungsrate                    : 23,976 FPS
    
    Audio
    deutsch: DTS-HD MA 5.1
    Bitrate: 2 121 kb/s / 1 509 kb/s
    
    japanisch: PCM 2.0
    Bitrate: 2 304 kb/s
    
    Original BluRay und encodet by AST4u-HD-Crew
    
    Die Gefahren des Spielens
    
    Im Jahr 2027 ist das Videospiel "Phantasy Star Online 2" der Hit an der Seiga Akademie.
      Jeder Schnler spielt es mit gr sster Begeisterung - ausser Itsuki Tachibana, der dafnr
      nichts nbrig hat. Wegen seiner Beliebtheit wird das Spiel vom Schnlerrat auf eventuellen
      negativen Einfluss untersucht. Damit erregt Itsuki die Aufmerksamkeit von RatsprSsidentin
      Rina, die unbedingt das Gegenteil beweisen will. Sie macht Itsuki zum VizeprSsident und
      zwingt ihn dazu, das Spiel zu spielen und Rina tSglich einen Bericht zu geben.
    
    Das Internet ist im modernen Tokio des Jahres 2027 noch viel gegenwSrtiger und praktisch
      nberall verfngbar. Kein Wunder, dass die Jugend darauf anspringt, besonders das
      vorinstallierte Spiel äPhantasy Star Online 2ô ist der Renner. Doch kann es sein, dass die
      Schnler dadurch ihre Zensuren verschlechtern? Oder gehen gar noch gr  ere Gefahren von
      dem Spiel aus?
    
    An der Seiga Akademie in Tokio
    Wir schreiben das Jahr 2027. Das Videospiel "Phantasy Star Online 2" ist der gro e Hit bei
      den Jungs und MSdchen an der Seiga Akademie in Tokio. Hierbei taucht man mittels eines
      Avatars in eine Spielewelt, in der es Abenteuer zu bestehen gibt und man auch gegen
      Monster kSmpfen muss.
    
    Alle au er Itsuki Tachibana
    Clou des Spieles ist, dass man mit den anderen Avataren û also den anderen Mitspielern û
      interagieren kann. Und so trifft man oft unwissentlich Menschen, die man im echten Leben
      tatsSchlich kennt. Jeder Schnler spielt es mit gr  ter Begeisterung û au er Itsuki
      Tachibana, der dafnr nichts nbrighat.
    
    Der Schnlerrat prnft
    Wegen seiner nberwSltigenden Beliebtheit wird das Spiel vom Schnlerrat auf eventuellen
      negativen Einfluss untersucht, denn man vermutet, dass es negativen Einfluss auf die Noten
      der Schnler hat. Es besteht wom glich die Gefahr, dass man den Schnlern der Seiga
      Akademie das Spielen verbieten will.
    
    Rina und Itsuki û eine schicksalhafte Begegnung
    Mit seiner Spielverweigerung erregt Itsuki die Aufmerksamkeit von RatsprSsidentin Rina,
      die unbedingt das Gegenteil beweisen will. Sie macht Itsuki zum VizeprSsidenten und zwingt
      ihn dazu, das Spiel zu spielen und Rina tSglich einen Bericht zu geben. Somit liegt das
      Schicksal von "Phantasy Star Online 2" in Itsukis HSnden.
    
    Der Anime zum beliebten Videospiel auf Deutsch bei KSM Anime! Volume 1 mit den Episoden
      1-4 erscheint im Sammelschuber mit Platz fnr Volume 2 und 3,die im Laufe des Jahres 2018
      erscheinen werden! 2015 beschloss SEGA, sein Free-To-Play-Online-Rollenspiel zu einer
      Fernsehserie auszuarbeiten, denn das Spiel war mit 3,5 Millionen registrierten Benutzern
      ein grandioser Erfolg. Mit einer neuen Geschichte und angesiedelt im Tokio der nahen
      Zukunft.
    
    Somit liegt das Schicksal von "Phantasy Star Online 2" in Itsukis HSnden.
    
    01 Quest 01: Das RPG, das mit éFreut mich, Dich kennenzu-lernenæ beginnt
    02 Quest 02: Der einsame KSmpfer
    03 Quest 03: Roleplay
    04 Quest 04: Phantasy Star Offline
    
    05 Quest 05: Aika
    06 Quest 06: Verbotenes PSO 2
    07 Quest 07: Vermisst
    08 Quest 08: Turning Point
    09 Quest 09: Austrittsmeldung
    10 Quest 10: Die Hnlle
    11 Quest 11: Dark Falz
    12 Quest 12: Ein RPG, das die Grenzen nberschreitet
    
    https://ast4u.me
    


    Mirrors kompatibel

    .:Share-online.biz:. [​IMG]
    Geschützter Bereich
    Registriere dich oder logge dich ein, um den Inhalt sehen zu können
    .:Rapidgator.net:. [​IMG]
    Geschützter Bereich
    Registriere dich oder logge dich ein, um den Inhalt sehen zu können
     
    cloud-strife20, Vagabund, tmcx und 2 anderen gefällt das.
  4. supersonik

    supersonik Maschine Premium

    Registriert seit:
    7. Jan. 2018
    Beiträge:
    326
    Zustimmungen:
    4.431

    Phantasy Star Online 2 The Animation
    ファンタシースターオンライン2 ジアニメーション
    [​IMG]

    Beschreibung:
    Itsuki Tachibana ist Student an der Seiga Akademie, einem gemischten Internat am Rande der Stadt. Im zweiten Semester wird er auf einmal zu der angesehenen Vorsitzenden, Rina Izumi, in den Beratungsraum geladen. Noch ahnt er nicht, was ihn dort erwartet …
    by anisearch.de

    Folgen: 12/12
    Größe pro Folge: ~715 MB | ~1966 MB
    Releaser: AST4u
    Art: Lizenzrelease
    Sprache: Japanisch, Deutsch
    Untertitel: Deutsch
    Jahr: 2016
    Genres: Action, Abenteuer, Alltagsleben, Fantasy, SciFi, Komödie, Mecha, Romanze, Magie
    Auflösung: 1280x720 | 1920x1080
    Format: MKV
    Quelle: Bluray
    Videocodec: x264
    Farbtiefe: 8bit
    Audiocodec: AC3 | DTS-HD
    Publisher: Telecom Animation Film Co. Ltd. | KSM GmbH
    Hoster: Rapidgator | Uploaded


    Mediainfo:

    Code:
    Allgemein UniqueID/String : 241739574533647835767957618520299751405 (0xB5DD5939827B1B30B1AA402A8C4947ED) Vollständiger Name : Phantasy.Star.Online.2.The.Animation.German.DL.AC3.720p.BluRay.x264-AST4u\Phantasy.Star.Online.2-The.Animation.Ep01.German.AC3.DL.720p.BluRay.x264-AST4u.mkv Format : Matroska Format-Version : Version 4 Dateigröße : 737 MiB Dauer : 24 min 34s Gesamte Bitrate : 4 191 kb/s Kodierungs-Datum : UTC 2019-01-24 12:54:19 Kodierendes Programm : mkvmerge v15.0.0 ('Duel with the Devil') 64-bit verwendete Encoder-Bibliothek : libebml v1.3.5 + libmatroska v1.4.5 Video ID : 1 Format : AVC Format/Info : Advanced Video Codec Format-Profil : High@L4.1 Format-Einstellungen : CABAC / 4 Ref Frames Format-Einstellungen für CABAC : Ja Format-Einstellungen für RefFrames : 4 frames Codec-ID : V_MPEG4/ISO/AVC Dauer : 24 min 34s Bitrate : 3 278 kb/s Breite : 1 280 Pixel Höhe : 720 Pixel Bildseitenverhältnis : 16:9 Modus der Bildwiederholungsrate : konstant Bildwiederholungsrate : 23,976 (24000/1001) FPS ColorSpace : YUV ChromaSubsampling/String : 4:2:0 BitDepth/String : 8 bits Scantyp : progressiv Bits/(Pixel*Frame) : 0.148 Stream-Größe : 576 MiB (78%) verwendete Encoder-Bibliothek : x264 core 152 r2851 ba24899 Kodierungseinstellungen : cabac=1 / ref=3 / deblock=1:1:1 / analyse=0x3:0x133 / me=umh / subme=9 / psy=1 / psy_rd=1.00:0.00 / mixed_ref=1 / me_range=32 / chroma_me=1 / trellis=2 / 8x8dct=1 / cqm=0 / deadzone=21,11 / fast_pskip=1 / chroma_qp_offset=-2 / threads=22 / lookahead_threads=1 / sliced_threads=0 / nr=0 / decimate=1 / interlaced=0 / bluray_compat=0 / constrained_intra=0 / bframes=3 / b_pyramid=2 / b_adapt=2 / b_bias=0 / direct=3 / weightb=1 / open_gop=0 / weightp=2 / keyint=250 / keyint_min=25 / scenecut=40 / intra_refresh=0 / rc_lookahead=48 / rc=crf / mbtree=1 / crf=16.0 / qcomp=0.60 / qpmin=0 / qpmax=69 / qpstep=4 / ip_ratio=1.40 / aq=3:1.00 Default : Ja Forced : Nein colour_range : Limited matrix_coefficients : BT.709 Audio #1 ID : 2 Format : AC-3 Format/Info : Audio Coding 3 Format_Commercial_IfAny : Dolby Digital Codec-ID : A_AC3 Dauer : 24 min 34s Bitraten-Modus : konstant Bitrate : 448 kb/s Kanäle : 6 Kanäle ChannelLayout : L R C LFE Ls Rs Samplingrate : 48,0 kHz Bildwiederholungsrate : 31,250 FPS (1536 SPF) BitDepth/String : 16 bits Stream-Größe : 78,7 MiB (11%) Sprache : Deutsch ServiceKind/String : Complete Main Default : Ja Forced : Nein Audio #2 ID : 3 Format : AC-3 Format/Info : Audio Coding 3 Format_Commercial_IfAny : Dolby Digital Codec-ID : A_AC3 Dauer : 24 min 34s Bitraten-Modus : konstant Bitrate : 448 kb/s Kanäle : 2 Kanäle ChannelLayout : L R Samplingrate : 48,0 kHz Bildwiederholungsrate : 31,250 FPS (1536 SPF) BitDepth/String : 16 bits Stream-Größe : 78,7 MiB (11%) Sprache : Japanisch ServiceKind/String : Complete Main Default : Nein Forced : Nein Text #1 ID : 4 Format : PGS Muxing-Modus : zlib Codec-ID : S_HDMV/PGS Codec-ID/Info : Picture based subtitle format used on BDs/HD-DVDs Dauer : 22 min 24s Bitrate : 33,4 kb/s ElementCount : 583 Stream-Größe : 5,36 MiB (1%) Sprache : Deutsch Default : Nein Forced : Nein Text #2 ID : 5 Format : PGS Muxing-Modus : zlib Codec-ID : S_HDMV/PGS Codec-ID/Info : Picture based subtitle format used on BDs/HD-DVDs Dauer : 21 min 56s Bitrate : 3 738 b/s ElementCount : 61 Stream-Größe : 601 KiB (0%) Sprache : Deutsch Default : Nein Forced : Nein ​


    Code:
    Allgemein UniqueID/String : 113323689045125517389009197805435037869 (0x5541593EC51BC1E1C38E3ED38EBF28AD) Vollständiger Name : Phantasy.Star.Online.2.The.Animation.German.DL.DTS.1080p.BluRay.x264-AST4u\Phantasy.Star.Online.2-The.Animation.Ep01.German.DTS.DL.1080p.BluRay.x264-AST4u.mkv Format : Matroska Format-Version : Version 4 Dateigröße : 1,96 GiB Dauer : 24 min 34s Modus der Gesamtbitrate : variabel Gesamte Bitrate : 11,4 Mb/s Kodierungs-Datum : UTC 2019-01-24 23:53:49 Kodierendes Programm : mkvmerge v19.0.0 ('Brave Captain') 64-bit verwendete Encoder-Bibliothek : libebml v1.3.5 + libmatroska v1.4.8 Video ID : 1 Format : AVC Format/Info : Advanced Video Codec Format-Profil : High@L4.1 Format-Einstellungen : CABAC / 4 Ref Frames Format-Einstellungen für CABAC : Ja Format-Einstellungen für RefFrames : 4 frames Codec-ID : V_MPEG4/ISO/AVC Dauer : 24 min 34s Bitrate : 8 610 kb/s Breite : 1 920 Pixel Höhe : 1 080 Pixel Bildseitenverhältnis : 16:9 Modus der Bildwiederholungsrate : konstant Bildwiederholungsrate : 23,976 (24000/1001) FPS ColorSpace : YUV ChromaSubsampling/String : 4:2:0 BitDepth/String : 8 bits Scantyp : progressiv Bits/(Pixel*Frame) : 0.173 Stream-Größe : 1,48 GiB (76%) verwendete Encoder-Bibliothek : x264 core 152 r2851 ba24899 Kodierungseinstellungen : cabac=1 / ref=3 / deblock=1:1:1 / analyse=0x3:0x133 / me=umh / subme=9 / psy=1 / psy_rd=1.00:0.00 / mixed_ref=1 / me_range=32 / chroma_me=1 / trellis=2 / 8x8dct=1 / cqm=0 / deadzone=21,11 / fast_pskip=1 / chroma_qp_offset=-2 / threads=24 / lookahead_threads=2 / sliced_threads=0 / nr=0 / decimate=1 / interlaced=0 / bluray_compat=0 / constrained_intra=0 / bframes=3 / b_pyramid=2 / b_adapt=2 / b_bias=0 / direct=3 / weightb=1 / open_gop=0 / weightp=2 / keyint=250 / keyint_min=25 / scenecut=40 / intra_refresh=0 / rc_lookahead=48 / rc=crf / mbtree=1 / crf=16.0 / qcomp=0.60 / qpmin=0 / qpmax=69 / qpstep=4 / ip_ratio=1.40 / aq=3:1.00 Default : Ja Forced : Nein colour_range : Limited matrix_coefficients : BT.709 Audio #1 ID : 2 Format : DTS XLL Format/Info : Digital Theater Systems Format_Commercial_IfAny : DTS-HD Master Audio Codec-ID : A_DTS Dauer : 24 min 34s Bitraten-Modus : variabel Bitrate : 1 709 kb/s Kanäle : 6 Kanäle ChannelLayout : C L R Ls Rs LFE Samplingrate : 48,0 kHz Bildwiederholungsrate : 93,750 FPS (512 SPF) BitDepth/String : 16 bits Stream-Größe : 300 MiB (15%) Sprache : Deutsch Default : Ja Forced : Nein Audio #2 ID : 3 Format : DTS XLL Format/Info : Digital Theater Systems Format_Commercial_IfAny : DTS-HD Master Audio Codec-ID : A_DTS Dauer : 24 min 34s Bitraten-Modus : variabel Bitrate : 1 052 kb/s Kanäle : 2 Kanäle Samplingrate : 48,0 kHz Bildwiederholungsrate : 93,750 FPS (512 SPF) BitDepth/String : 16 bits Stream-Größe : 185 MiB (9%) Sprache : Japanisch Default : Nein Forced : Nein Text #1 ID : 4 Format : PGS Muxing-Modus : zlib Codec-ID : S_HDMV/PGS Codec-ID/Info : Picture based subtitle format used on BDs/HD-DVDs Dauer : 22 min 24s Bitrate : 33,4 kb/s ElementCount : 583 Stream-Größe : 5,36 MiB (0%) Sprache : Deutsch Default : Ja Forced : Nein Text #2 ID : 5 Format : PGS Muxing-Modus : zlib Codec-ID : S_HDMV/PGS Codec-ID/Info : Picture based subtitle format used on BDs/HD-DVDs Dauer : 21 min 56s Bitrate : 3 738 b/s ElementCount : 61 Stream-Größe : 601 KiB (0%) Sprache : Deutsch Default : Nein Forced : Nein ​



    720p: [​IMG]
    1080p: [​IMG]
    Geschützter Bereich
    Registriere dich oder logge dich ein, um den Inhalt sehen zu können

     
    Ronae, Draagul, Bloodrevenge und 11 anderen gefällt das.