1. Die erweiterte Suche funktioniert wieder. Die LiveSearch ist vorübergehend deaktiviert

Wir verwenden Cookies, um deinen Aufenthalt auf Animes.so möglichst angenehm gestalten zu können. Mehr erfahren

Radiant [Laufend][Jap-Dub][Ger-Eng-Sub][720p|1080p][WebRip ] - CR

Dieses Thema im Forum "Serien (GerSub)" wurde erstellt von Ta@, 8. Okt. 2018.

  1. Ta@

    Ta@ Treues Mitglied Seelenverkäufer

    Registriert seit:
    7. Juli 2016
    Beiträge:
    427
    Zustimmungen:
    18.074
    Radiant


    [​IMG]
    [​IMG]

    Radiant spielt in einer Welt, in der die Menschen hoch über den Wolken auf einzelnen Inseln leben. Eines Tages erscheinen wie aus dem Nichts gefährliche Monster namens Nemesis und bringen Chaos und Verwüstung über die Welt. Sie kontaminieren jeden, den sie berühren. Doch es gibt einige wenige Menschen, die den sonst tödlichen Kontakt mit den Nemesis überlebt haben. Sie sind die Infizierten, die nun, mit besonderen Kräften ausgestattet, als einzige den Nemesis im Kampf gegenübertreten können. Trotz der gefährlichen Auseinandersetzungen mit den Nemesis werden die Infizierten von den übrigen Menschen jedoch gefürchtet. Einer der Infizierten ist Seth, ein junger Waise und angehender Zauberer von den Pompo Hills. Gemeinsam mit seiner Meisterin Alma besteht sein Alltag darin, die Nemesis ausfindig zu machen und zu bekämpfen. Doch Seth erkennt, dass man, um die Nemesis endgültig zu besiegen, deren Ursprung ausfindig machen muss. Und so nimmt es sich Seth zur Aufgabe, die Quelle der Nemesis, den sogenannten Radiant, zu finden. Ihm schließen sich dabei weitere Zauberer an und gemeinsam bereisen sie die Welt auf der Suche nach etwas, von dem keiner genau weiß, wo es sich befindet – verfolgt von den wachsamen Augen der Inquisition!

    Folgen: 21/21
    Größe pro Folge: ~390 MB/~830 MB
    Folgendauer: ~24 Min
    Releaser: Ta@
    Art: Lizenzrelease
    Sprache: Japanisch
    Untertitel: Deutsch, Englisch
    Jahr: 2018
    Genres: Abenteuer, Action
    Auflösung: 1280x720/1920x1080
    Format: MKV
    Quelle: WebRip
    Videocodec: x264
    Farbtiefe: 8Bit
    Audiocodec: AAC
    Publisher: Crunchyroll
    Hoster: Share-Online

    [​IMG]
    Code:
    General Complete name : [Ta@]RADIANT_01_[Web,720p,AAC].mkv Format : Matroska Format version : Version 4 File size : 388 MiB Duration : 24 min 31 s Overall bit rate : 2 211 kb/s Encoded date : UTC 2018-10-08 17:21:41 Writing application : mkvmerge v26.0.0 ('In The Game') 64-bit Writing library : libebml v1.3.6 + libmatroska v1.4.9 Attachments : lt.ttf Video ID : 1 Format : AVC Format/Info : Advanced Video Codec Format profile : High@L4 Format settings : CABAC / 6 Ref Frames Format settings, CABAC : Yes Format settings, RefFrames : 6 frames Codec ID : V_MPEG4/ISO/AVC Duration : 24 min 30 s Bit rate : 2 081 kb/s Width : 1 280 pixels Height : 720 pixels Display aspect ratio : 16:9 Frame rate mode : Constant Frame rate : 23.976 (24000/1001) FPS Color space : YUV Chroma subsampling : 4:2:0 Bit depth : 8 bits Scan type : Progressive Bits/(Pixel*Frame) : 0.094 Stream size : 365 MiB (94%) Writing library : x264 core 142 Encoding settings : cabac=1 / ref=6 / deblock=1:1:1 / analyse=0x3:0x113 / me=umh / subme=8 / psy=1 / psy_rd=0.40:0.00 / mixed_ref=1 / me_range=16 / chroma_me=1 / trellis=1 / 8x8dct=1 / cqm=0 / deadzone=21,11 / fast_pskip=1 / chroma_qp_offset=-2 / threads=10 / lookahead_threads=1 / sliced_threads=0 / nr=0 / decimate=1 / interlaced=0 / bluray_compat=0 / constrained_intra=0 / bframes=3 / b_pyramid=2 / b_adapt=2 / b_bias=0 / direct=3 / weightb=1 / open_gop=0 / weightp=2 / keyint=48 / keyint_min=25 / scenecut=0 / intra_refresh=0 / rc_lookahead=48 / rc=crf / mbtree=1 / crf=15.0 / qcomp=0.60 / qpmin=0 / qpmax=69 / qpstep=4 / vbv_maxrate=4000 / vbv_bufsize=6000 / crf_max=0.0 / nal_hrd=none / filler=0 / ip_ratio=1.40 / aq=1:0.60 Default : Yes Forced : No Audio ID : 2 Format : AAC LC Format/Info : Advanced Audio Codec Low Complexity Codec ID : A_AAC-2 Duration : 24 min 30 s Bit rate : 128 kb/s Channel(s) : 2 channels Channel layout : L R Sampling rate : 44.1 kHz Frame rate : 43.066 FPS (1024 SPF) Compression mode : Lossy Delay relative to video : -83 ms Stream size : 22.4 MiB (6%) Default : Yes Forced : No Text #1 ID : 3 Format : ASS Codec ID : S_TEXT/ASS Codec ID/Info : Advanced Sub Station Alpha Duration : 24 min 31 s Bit rate : 114 b/s Count of elements : 322 Compression mode : Lossless Stream size : 20.6 KiB (0%) Language : German Default : Yes Forced : No Text #2 ID : 4 Format : ASS Codec ID : S_TEXT/ASS Codec ID/Info : Advanced Sub Station Alpha Duration : 24 min 30 s Bit rate : 109 b/s Count of elements : 323 Compression mode : Lossless Stream size : 19.7 KiB (0%) Language : English Default : No Forced : No ​
    Code:
    General Complete name : [Ta@]RADIANT_01_[Web,1080p,AAC].mkv Format : Matroska Format version : Version 4 File size : 827 MiB Duration : 24 min 31 s Overall bit rate : 4 717 kb/s Encoded date : UTC 2018-10-08 17:21:44 Writing application : mkvmerge v26.0.0 ('In The Game') 64-bit Writing library : libebml v1.3.6 + libmatroska v1.4.9 Attachments : lt.ttf Video ID : 1 Format : AVC Format/Info : Advanced Video Codec Format profile : High@L4 Format settings : CABAC / 4 Ref Frames Format settings, CABAC : Yes Format settings, RefFrames : 4 frames Codec ID : V_MPEG4/ISO/AVC Duration : 24 min 30 s Bit rate : 4 590 kb/s Width : 1 920 pixels Height : 1 080 pixels Display aspect ratio : 16:9 Frame rate mode : Constant Frame rate : 23.976 (24000/1001) FPS Color space : YUV Chroma subsampling : 4:2:0 Bit depth : 8 bits Scan type : Progressive Bits/(Pixel*Frame) : 0.092 Stream size : 804 MiB (97%) Writing library : x264 core 142 Encoding settings : cabac=1 / ref=4 / deblock=1:1:1 / analyse=0x3:0x113 / me=umh / subme=8 / psy=1 / psy_rd=0.40:0.00 / mixed_ref=1 / me_range=16 / chroma_me=1 / trellis=1 / 8x8dct=1 / cqm=0 / deadzone=21,11 / fast_pskip=1 / chroma_qp_offset=-2 / threads=12 / lookahead_threads=2 / sliced_threads=0 / nr=0 / decimate=1 / interlaced=0 / bluray_compat=0 / constrained_intra=0 / bframes=3 / b_pyramid=2 / b_adapt=2 / b_bias=0 / direct=3 / weightb=1 / open_gop=0 / weightp=2 / keyint=48 / keyint_min=25 / scenecut=0 / intra_refresh=0 / rc_lookahead=48 / rc=crf / mbtree=1 / crf=15.0 / qcomp=0.60 / qpmin=0 / qpmax=69 / qpstep=4 / vbv_maxrate=8000 / vbv_bufsize=12000 / crf_max=0.0 / nal_hrd=none / filler=0 / ip_ratio=1.40 / aq=1:0.60 Default : Yes Forced : No Audio ID : 2 Format : AAC LC Format/Info : Advanced Audio Codec Low Complexity Codec ID : A_AAC-2 Duration : 24 min 30 s Bit rate : 128 kb/s Channel(s) : 2 channels Channel layout : L R Sampling rate : 44.1 kHz Frame rate : 43.066 FPS (1024 SPF) Compression mode : Lossy Delay relative to video : -83 ms Stream size : 22.4 MiB (3%) Default : Yes Forced : No Text #1 ID : 3 Format : ASS Codec ID : S_TEXT/ASS Codec ID/Info : Advanced Sub Station Alpha Duration : 24 min 31 s Bit rate : 114 b/s Count of elements : 322 Compression mode : Lossless Stream size : 20.6 KiB (0%) Language : German Default : Yes Forced : No Text #2 ID : 4 Format : ASS Codec ID : S_TEXT/ASS Codec ID/Info : Advanced Sub Station Alpha Duration : 24 min 30 s Bit rate : 109 b/s Count of elements : 323 Compression mode : Lossless Stream size : 19.7 KiB (0%) Language : English Default : No Forced : No ​

    Anmerkung:
    Ich habe das Timing verbessert und die Font gefixt.

    720p:[​IMG]1080p:[​IMG]

    Geschützter Bereich
    Registriere dich oder logge dich ein, um den Inhalt sehen zu können
     
    Zuletzt bearbeitet: 25. Feb. 2019
    Vagabund, folgar, Ookami77 und 61 anderen gefällt das.
  2. Ta@

    Ta@ Treues Mitglied Seelenverkäufer

    Registriert seit:
    7. Juli 2016
    Beiträge:
    427
    Zustimmungen:
    18.074
    ~Folge 21 online~
    ~Staffel/Serie abgeschlossen~
     
    chopper23 gefällt das.