Wir verwenden Cookies, um deinen Aufenthalt auf Animes.so möglichst angenehm gestalten zu können. Mehr erfahren

Rokka no Yuusha | Rokka: Braves of the Six Flowers [Ger-Jap-Dub][Ger-Sub][AAC|AC-3|DTS-HD][404p|720p|1080p][BluRay] - Fuuko

Dieses Thema im Forum "Anime Serien (Deutsch)" wurde erstellt von Fuuko, 9. Sep. 2019.

  1. Fuuko

    Fuuko Erfahrener Otaku Otaku König

    Registriert seit:
    19. Sep. 2018
    Beiträge:
    225
    Zustimmungen:
    9.134
    Rokka no Yuusha
    Rokka: Braves of the Six Flowers


    [​IMG][​IMG]

    [​IMG]
    [​IMG]
    Episoden: 12 / 12
    Spieldauer: 24 Min.
    Source: Deutsche Original BluRay
    Release by: Fuuko
    Format: mkv
    Sprache: Deutsch [2.0] | Japanisch [2.0]
    Untertitel: Deutsch (Full) | Deutsch (Forced)
    Audio: AAC [384 kb/s] | AC-3 [384 kb/s] | DTS-HD [2175 kb/s]
    Auflösung : 720x404 | 1280x720 | 1920x1080
    Größe: 350MB | 700MB | 1400MB | 2000MB
    Code:
    Complete name               : Rokka-Braves.of.the.Six.Flowers.E01.German.AAC.DL.BDRiP.x264-Fuuko.mkv
    Format                      : Matroska
    Format version              : Version 4
    File size                   : 361 MiB
    Duration                    : 23 min 40 s
    Overall bit rate            : 2 130 kb/s
    Encoded date                : UTC 2019-09-09 14:32:09
    Writing application         : mkvmerge v10.0.0 ('To Drown In You') 64bit
    Writing library             : libebml v1.3.4 + libmatroska v1.4.5
    
    Video
    ID                          : 1
    Format                      : AVC
    Format/Info                 : Advanced Video Codec
    Format profile              : High@L4.1
    Format settings             : CABAC / 4 Ref Frames
    Format settings, CABAC      : Yes
    Format settings, ReFrames   : 4 frames
    Codec ID                    : V_MPEG4/ISO/AVC
    Duration                    : 23 min 39 s
    Bit rate                    : 1 360 kb/s
    Width                       : 720 pixels
    Height                      : 404 pixels
    Display aspect ratio        : 16:9
    Frame rate mode             : Constant
    Frame rate                  : 23.976 (24000/1001) FPS
    Color space                 : YUV
    Chroma subsampling          : 4:2:0
    Bit depth                   : 8 bits
    Scan type                   : Progressive
    Bits/(Pixel*Frame)          : 0.195
    Stream size                 : 230 MiB (64%)
    Writing library             : x264 core 148
    Encoding settings           : cabac=1 / ref=4 / deblock=1:1:1 / analyse=0x3:0 / me=hex / subme=5 / psy=0 / mixed_ref=0 / me_range=16 / chroma_me=1 / trellis=0 / 8x8dct=1 / cqm=0 / deadzone=21,11 / fast_pskip=0 / chroma_qp_offset=0 / threads=8 / lookahead_threads=2 / sliced_threads=0 / nr=0 / decimate=1 / interlaced=0 / bluray_compat=0 / constrained_intra=0 / bframes=2 / b_pyramid=0 / b_adapt=1 / b_bias=0 / direct=1 / weightb=0 / open_gop=0 / weightp=0 / keyint=24 / keyint_min=13 / scenecut=40 / intra_refresh=0 / rc=crf / mbtree=0 / crf=19.0 / qcomp=0.60 / qpmin=0 / qpmax=69 / qpstep=4 / ip_ratio=1.40 / pb_ratio=1.30 / aq=1:1.00
    Default                     : Yes
    Forced                      : No
    Color range                 : Limited
    Color primaries             : BT.601 NTSC
    Transfer characteristics    : BT.709
    Matrix coefficients         : BT.601
    
    Audio #1
    ID                          : 2
    Format                      : AAC LC
    Format/Info                 : Advanced Audio Codec Low Complexity
    Codec ID                    : A_AAC-2
    Duration                    : 23 min 40 s
    Bit rate                    : 384 kb/s
    Channel(s)                  : 2 channels
    Channel layout              : L R
    Sampling rate               : 48.0 kHz
    Frame rate                  : 46.875 FPS (1024 SPF)
    Compression mode            : Lossy
    Stream size                 : 64.6 MiB (18%)
    Language                    : German
    Default                     : Yes
    Forced                      : No
    
    Audio #2
    ID                          : 3
    Format                      : AAC LC
    Format/Info                 : Advanced Audio Codec Low Complexity
    Codec ID                    : A_AAC-2
    Duration                    : 23 min 40 s
    Bit rate                    : 384 kb/s
    Channel(s)                  : 2 channels
    Channel layout              : L R
    Sampling rate               : 48.0 kHz
    Frame rate                  : 46.875 FPS (1024 SPF)
    Compression mode            : Lossy
    Stream size                 : 64.6 MiB (18%)
    Language                    : Japanese
    Default                     : No
    Forced                      : No
    
    Text #1
    ID                          : 4
    Format                      : PGS
    Muxing mode                 : zlib
    Codec ID                    : S_HDMV/PGS
    Codec ID/Info               : Picture based subtitle format used on BDs/HD-DVDs
    Duration                    : 22 min 59 s
    Bit rate                    : 82 b/s
    Count of elements           : 6
    Stream size                 : 13.9 KiB (0%)
    Language                    : German
    Default                     : No
    Forced                      : No
    
    Text #2
    ID                          : 5
    Format                      : PGS
    Muxing mode                 : zlib
    Codec ID                    : S_HDMV/PGS
    Codec ID/Info               : Picture based subtitle format used on BDs/HD-DVDs
    Duration                    : 23 min 38 s
    Bit rate                    : 6 189 b/s
    Count of elements           : 504
    Stream size                 : 1.05 MiB (0%)
    Language                    : German
    Default                     : No
    Forced                      : No
    
    Menu
    00:00:00.000                : en:(01)00:00:00:000
    00:01:57.992                : en:(02)00:01:57:992
    00:10:53.194                : en:(03)00:10:53:194
    00:22:05.866                : en:(04)00:22:05:866
    00:23:40.043                : en:(05)00:23:40:043
    Code:
    Complete name               : Rokka-Braves.of.the.Six.Flowers.E01.German.AC3.DL.720p.BluRay.x264-Fuuko.mkv
    Format                      : Matroska
    Format version              : Version 4
    File size                   : 743 MiB
    Duration                    : 23 min 40 s
    Overall bit rate            : 4 389 kb/s
    Encoded date                : UTC 2019-09-09 14:30:44
    Writing application         : mkvmerge v10.0.0 ('To Drown In You') 64bit
    Writing library             : libebml v1.3.4 + libmatroska v1.4.5
    
    Video
    ID                          : 1
    Format                      : AVC
    Format/Info                 : Advanced Video Codec
    Format profile              : High@L4.1
    Format settings             : CABAC / 4 Ref Frames
    Format settings, CABAC      : Yes
    Format settings, ReFrames   : 4 frames
    Codec ID                    : V_MPEG4/ISO/AVC
    Duration                    : 23 min 39 s
    Bit rate                    : 3 612 kb/s
    Width                       : 1 280 pixels
    Height                      : 720 pixels
    Display aspect ratio        : 16:9
    Frame rate mode             : Constant
    Frame rate                  : 23.976 (24000/1001) FPS
    Color space                 : YUV
    Chroma subsampling          : 4:2:0
    Bit depth                   : 8 bits
    Scan type                   : Progressive
    Bits/(Pixel*Frame)          : 0.163
    Stream size                 : 611 MiB (82%)
    Writing library             : x264 core 148
    Encoding settings           : cabac=1 / ref=4 / deblock=1:1:1 / analyse=0x3:0 / me=hex / subme=5 / psy=0 / mixed_ref=0 / me_range=16 / chroma_me=1 / trellis=0 / 8x8dct=1 / cqm=0 / deadzone=21,11 / fast_pskip=0 / chroma_qp_offset=0 / threads=8 / lookahead_threads=2 / sliced_threads=0 / nr=0 / decimate=1 / interlaced=0 / bluray_compat=0 / constrained_intra=0 / bframes=2 / b_pyramid=0 / b_adapt=1 / b_bias=0 / direct=1 / weightb=0 / open_gop=0 / weightp=0 / keyint=24 / keyint_min=13 / scenecut=40 / intra_refresh=0 / rc=crf / mbtree=0 / crf=19.0 / qcomp=0.60 / qpmin=0 / qpmax=69 / qpstep=4 / ip_ratio=1.40 / pb_ratio=1.30 / aq=1:1.00
    Default                     : Yes
    Forced                      : No
    Color range                 : Limited
    Color primaries             : BT.709
    Transfer characteristics    : BT.709
    Matrix coefficients         : BT.709
    
    Audio #1
    ID                          : 2
    Format                      : AC-3
    Format/Info                 : Audio Coding 3
    Commercial name             : Dolby Digital
    Codec ID                    : A_AC3
    Duration                    : 23 min 40 s
    Bit rate mode               : Constant
    Bit rate                    : 384 kb/s
    Channel(s)                  : 2 channels
    Channel layout              : L R
    Sampling rate               : 48.0 kHz
    Frame rate                  : 31.250 FPS (1536 SPF)
    Bit depth                   : 16 bits
    Compression mode            : Lossy
    Stream size                 : 65.0 MiB (9%)
    Language                    : German
    Service kind                : Complete Main
    Default                     : Yes
    Forced                      : No
    
    Audio #2
    ID                          : 3
    Format                      : AC-3
    Format/Info                 : Audio Coding 3
    Commercial name             : Dolby Digital
    Codec ID                    : A_AC3
    Duration                    : 23 min 40 s
    Bit rate mode               : Constant
    Bit rate                    : 384 kb/s
    Channel(s)                  : 2 channels
    Channel layout              : L R
    Sampling rate               : 48.0 kHz
    Frame rate                  : 31.250 FPS (1536 SPF)
    Bit depth                   : 16 bits
    Compression mode            : Lossy
    Stream size                 : 65.0 MiB (9%)
    Language                    : Japanese
    Service kind                : Complete Main
    Default                     : No
    Forced                      : No
    
    Text #1
    ID                          : 4
    Format                      : PGS
    Muxing mode                 : zlib
    Codec ID                    : S_HDMV/PGS
    Codec ID/Info               : Picture based subtitle format used on BDs/HD-DVDs
    Duration                    : 22 min 59 s
    Bit rate                    : 146 b/s
    Count of elements           : 6
    Stream size                 : 24.7 KiB (0%)
    Language                    : German
    Default                     : No
    Forced                      : No
    
    Text #2
    ID                          : 5
    Format                      : PGS
    Muxing mode                 : zlib
    Codec ID                    : S_HDMV/PGS
    Codec ID/Info               : Picture based subtitle format used on BDs/HD-DVDs
    Duration                    : 23 min 38 s
    Bit rate                    : 11.5 kb/s
    Count of elements           : 504
    Stream size                 : 1.95 MiB (0%)
    Language                    : German
    Default                     : No
    Forced                      : No
    
    Menu
    00:00:00.000                : en:(01)00:00:00:000
    00:01:57.992                : en:(02)00:01:57:992
    00:10:53.194                : en:(03)00:10:53:194
    00:22:05.866                : en:(04)00:22:05:866
    Code:
    Complete name               : Rokka-Braves.of.the.Six.Flowers.E01.German.AC3.DL.1080p.BluRay.x264-Fuuko.mkv
    Format                      : Matroska
    Format version              : Version 4
    File size                   : 1.50 GiB
    Duration                    : 23 min 40 s
    Overall bit rate            : 9 049 kb/s
    Encoded date                : UTC 2019-09-09 14:27:05
    Writing application         : mkvmerge v10.0.0 ('To Drown In You') 64bit
    Writing library             : libebml v1.3.4 + libmatroska v1.4.5
    
    Video
    ID                          : 1
    Format                      : AVC
    Format/Info                 : Advanced Video Codec
    Format profile              : High@L4.1
    Format settings             : CABAC / 4 Ref Frames
    Format settings, CABAC      : Yes
    Format settings, ReFrames   : 4 frames
    Codec ID                    : V_MPEG4/ISO/AVC
    Duration                    : 23 min 39 s
    Bit rate                    : 8 251 kb/s
    Width                       : 1 920 pixels
    Height                      : 1 080 pixels
    Display aspect ratio        : 16:9
    Frame rate mode             : Constant
    Frame rate                  : 23.976 (24000/1001) FPS
    Color space                 : YUV
    Chroma subsampling          : 4:2:0
    Bit depth                   : 8 bits
    Scan type                   : Progressive
    Bits/(Pixel*Frame)          : 0.166
    Stream size                 : 1.36 GiB (91%)
    Writing library             : x264 core 148
    Encoding settings           : cabac=1 / ref=4 / deblock=1:1:1 / analyse=0x3:0 / me=hex / subme=5 / psy=0 / mixed_ref=0 / me_range=16 / chroma_me=1 / trellis=0 / 8x8dct=1 / cqm=0 / deadzone=21,11 / fast_pskip=0 / chroma_qp_offset=0 / threads=8 / lookahead_threads=2 / sliced_threads=0 / nr=0 / decimate=1 / interlaced=0 / bluray_compat=0 / constrained_intra=0 / bframes=2 / b_pyramid=0 / b_adapt=1 / b_bias=0 / direct=1 / weightb=0 / open_gop=0 / weightp=0 / keyint=24 / keyint_min=13 / scenecut=40 / intra_refresh=0 / rc=crf / mbtree=0 / crf=19.0 / qcomp=0.60 / qpmin=0 / qpmax=69 / qpstep=4 / ip_ratio=1.40 / pb_ratio=1.30 / aq=1:1.00
    Default                     : Yes
    Forced                      : No
    Color range                 : Limited
    Color primaries             : BT.709
    Transfer characteristics    : BT.709
    Matrix coefficients         : BT.709
    
    Audio #1
    ID                          : 2
    Format                      : AC-3
    Format/Info                 : Audio Coding 3
    Commercial name             : Dolby Digital
    Codec ID                    : A_AC3
    Duration                    : 23 min 40 s
    Bit rate mode               : Constant
    Bit rate                    : 384 kb/s
    Channel(s)                  : 2 channels
    Channel layout              : L R
    Sampling rate               : 48.0 kHz
    Frame rate                  : 31.250 FPS (1536 SPF)
    Bit depth                   : 16 bits
    Compression mode            : Lossy
    Stream size                 : 65.0 MiB (4%)
    Language                    : German
    Service kind                : Complete Main
    Default                     : Yes
    Forced                      : No
    
    Audio #2
    ID                          : 3
    Format                      : AC-3
    Format/Info                 : Audio Coding 3
    Commercial name             : Dolby Digital
    Codec ID                    : A_AC3
    Duration                    : 23 min 40 s
    Bit rate mode               : Constant
    Bit rate                    : 384 kb/s
    Channel(s)                  : 2 channels
    Channel layout              : L R
    Sampling rate               : 48.0 kHz
    Frame rate                  : 31.250 FPS (1536 SPF)
    Bit depth                   : 16 bits
    Compression mode            : Lossy
    Stream size                 : 65.0 MiB (4%)
    Language                    : Japanese
    Service kind                : Complete Main
    Default                     : No
    Forced                      : No
    
    Text #1
    ID                          : 4
    Format                      : PGS
    Muxing mode                 : zlib
    Codec ID                    : S_HDMV/PGS
    Codec ID/Info               : Picture based subtitle format used on BDs/HD-DVDs
    Duration                    : 22 min 59 s
    Bit rate                    : 489 b/s
    Count of elements           : 6
    Stream size                 : 82.4 KiB (0%)
    Language                    : German
    Default                     : No
    Forced                      : No
    
    Text #2
    ID                          : 5
    Format                      : PGS
    Muxing mode                 : zlib
    Codec ID                    : S_HDMV/PGS
    Codec ID/Info               : Picture based subtitle format used on BDs/HD-DVDs
    Duration                    : 23 min 38 s
    Bit rate                    : 38.9 kb/s
    Count of elements           : 504
    Stream size                 : 6.58 MiB (0%)
    Language                    : German
    Default                     : No
    Forced                      : No
    
    Menu
    00:00:00.000                : en:(01)00:00:00:000
    00:01:57.992                : en:(02)00:01:57:992
    00:10:53.194                : en:(03)00:10:53:194
    00:22:05.866                : en:(04)00:22:05:866
    Code:
    Complete name               : Rokka-Braves.of.the.Six.Flowers.E01.German.DTS.DL.1080p.BluRay.x264-Fuuko.mkv
    Format                      : Matroska
    Format version              : Version 4
    File size                   : 2.09 GiB
    Duration                    : 23 min 40 s
    Overall bit rate mode       : Variable
    Overall bit rate            : 12.6 Mb/s
    Encoded date                : UTC 2019-09-09 14:21:48
    Writing application         : mkvmerge v10.0.0 ('To Drown In You') 64bit
    Writing library             : libebml v1.3.4 + libmatroska v1.4.5
    
    Video
    ID                          : 1
    Format                      : AVC
    Format/Info                 : Advanced Video Codec
    Format profile              : High@L4.1
    Format settings             : CABAC / 4 Ref Frames
    Format settings, CABAC      : Yes
    Format settings, ReFrames   : 4 frames
    Codec ID                    : V_MPEG4/ISO/AVC
    Duration                    : 23 min 39 s
    Bit rate                    : 8 251 kb/s
    Width                       : 1 920 pixels
    Height                      : 1 080 pixels
    Display aspect ratio        : 16:9
    Frame rate mode             : Constant
    Frame rate                  : 23.976 (24000/1001) FPS
    Color space                 : YUV
    Chroma subsampling          : 4:2:0
    Bit depth                   : 8 bits
    Scan type                   : Progressive
    Bits/(Pixel*Frame)          : 0.166
    Stream size                 : 1.36 GiB (65%)
    Writing library             : x264 core 148
    Encoding settings           : cabac=1 / ref=4 / deblock=1:1:1 / analyse=0x3:0 / me=hex / subme=5 / psy=0 / mixed_ref=0 / me_range=16 / chroma_me=1 / trellis=0 / 8x8dct=1 / cqm=0 / deadzone=21,11 / fast_pskip=0 / chroma_qp_offset=0 / threads=8 / lookahead_threads=2 / sliced_threads=0 / nr=0 / decimate=1 / interlaced=0 / bluray_compat=0 / constrained_intra=0 / bframes=2 / b_pyramid=0 / b_adapt=1 / b_bias=0 / direct=1 / weightb=0 / open_gop=0 / weightp=0 / keyint=24 / keyint_min=13 / scenecut=40 / intra_refresh=0 / rc=crf / mbtree=0 / crf=19.0 / qcomp=0.60 / qpmin=0 / qpmax=69 / qpstep=4 / ip_ratio=1.40 / pb_ratio=1.30 / aq=1:1.00
    Default                     : Yes
    Forced                      : No
    Color range                 : Limited
    Color primaries             : BT.709
    Transfer characteristics    : BT.709
    Matrix coefficients         : BT.709
    
    Audio #1
    ID                          : 2
    Format                      : DTS XLL
    Format/Info                 : Digital Theater Systems
    Commercial name             : DTS-HD Master Audio
    Codec ID                    : A_DTS
    Duration                    : 23 min 40 s
    Bit rate mode               : Variable
    Bit rate                    : 2 175 kb/s
    Channel(s)                  : 2 channels
    Channel layout              : L R
    Sampling rate               : 48.0 kHz
    Frame rate                  : 93.750 FPS (512 SPF)
    Bit depth                   : 24 bits
    Compression mode            : Lossless
    Stream size                 : 368 MiB (17%)
    Language                    : German
    Default                     : Yes
    Forced                      : No
    
    Audio #2
    ID                          : 3
    Format                      : DTS XLL
    Format/Info                 : Digital Theater Systems
    Commercial name             : DTS-HD Master Audio
    Codec ID                    : A_DTS
    Duration                    : 23 min 40 s
    Bit rate mode               : Variable
    Bit rate                    : 2 174 kb/s
    Channel(s)                  : 2 channels
    Channel layout              : L R
    Sampling rate               : 48.0 kHz
    Frame rate                  : 93.750 FPS (512 SPF)
    Bit depth                   : 24 bits
    Compression mode            : Lossless
    Stream size                 : 368 MiB (17%)
    Language                    : Japanese
    Default                     : No
    Forced                      : No
    
    Text #1
    ID                          : 4
    Format                      : PGS
    Muxing mode                 : zlib
    Codec ID                    : S_HDMV/PGS
    Codec ID/Info               : Picture based subtitle format used on BDs/HD-DVDs
    Duration                    : 22 min 59 s
    Bit rate                    : 489 b/s
    Count of elements           : 6
    Stream size                 : 82.4 KiB (0%)
    Language                    : German
    Default                     : No
    Forced                      : No
    
    Text #2
    ID                          : 5
    Format                      : PGS
    Muxing mode                 : zlib
    Codec ID                    : S_HDMV/PGS
    Codec ID/Info               : Picture based subtitle format used on BDs/HD-DVDs
    Duration                    : 23 min 38 s
    Bit rate                    : 38.9 kb/s
    Count of elements           : 504
    Stream size                 : 6.58 MiB (0%)
    Language                    : German
    Default                     : No
    Forced                      : No
    
    Menu
    00:00:00.000                : en:(01)00:00:00:000
    00:01:57.992                : en:(02)00:01:57:992
    00:10:53.194                : en:(03)00:10:53:194
    00:22:05.866                : en:(04)00:22:05:866
    [​IMG]
    404p - AAC [​IMG]
    720p - AC-3 [​IMG]
    1080p - AC-3 [​IMG]
    1080p - DTS-HD [​IMG]
    Geschützter Bereich
    Registriere dich oder logge dich ein, um den Inhalt sehen zu können
     
    Zuletzt bearbeitet: 18. Okt. 2019
    Pure, koax, nickssystem und 54 anderen gefällt das.
  2. Uploading123

    Uploading123 High Quality Anime Nolife

    Registriert seit:
    7. März 2013
    Beiträge:
    744
    Zustimmungen:
    18.783

    Rokka-Braves of the Six Flowers

    [​IMG]

    .:Beschreibung:.
    Einer Legende nach wird der einst besiegte Dämonengott alle paar hundert Jahre wiedererwachen und die Welt in eine Hölle verwandeln. Wenn dies geschieht, werden sechs Helden erscheinen, ausgestattet mit den Kräften der Heiligen der Blume. Um als einer von ihnen auserwählt zu werden, muss man seine Kraft vorerst unter Beweis stellen.
    Das ist auch der Beweggrund Adlet Myers, der sich selbst als stärksten Mann auf Erden bezeichnet, als er ein heiliges Turnier unterbricht, um dort sein Können zu demonstrieren. Doch leider ist alle Mühe vergebens und er landet im Verlies. Da erscheint eines Nachts nach einem unheilvollen Traum unverhofft das Heldenmal auf seiner Hand. Nachdem die Kronprinzessin Pienas, ebenfalls Trägerin eines Blumensymbols, ihm bei der Flucht behilflich war, brechen die zwei auf gen Westen, zum Land der Dämonen. Dort sollen sich alle sechs Auserwählten versammeln, um gemeinsam gegen den Dämonengott in den Kampf zu ziehen. Als sich jedoch sieben Personen gegenüberstehen, heißt es, den Verräter zu entlarven …

    .:Info:.
    Größe: 22216 MB
    Laufzeit: 24 Min.
    Format: .mkv
    Video Stream: BD
    Video Codec: MPEG-4 H.264 / AVC
    Audio Stream: DTS-HD MA 2.0
    Sprache/n: GER, JPN
    Untertitel: GER
    Releaser: Fuuko
    Episodenanzahl: 12/12
    IMDb: 7.0
    Hoster: SO, RG

    .:NFO:.
    Code:
    Format                                   : Matroska
    Format-Version                           : Version 4 / Version 2
    Dateigröße                               : 2,09 GiB
    Dauer                                    : 23 min 40s
    Gesamte Bitrate                          : 12,6 Mb/s
    Kodierungs-Datum                         : UTC 2019-09-09 14:21:48
    Kodierendes Programm                     : mkvmerge v10.0.0 ('To Drown In You') 64bit
    verwendete Encoder-Bibliothek            : libebml v1.3.4 + libmatroska v1.4.5
    
    Video
    ID                                       : 1
    Format                                   : AVC
    Format/Info                              : Advanced Video Codec
    Format-Profil                            : High@L4.1
    Format-Einstellungen                     : CABAC / 4 Ref Frames
    Format-Einstellungen für CABAC           : Ja
    Format-Einstellungen für RefFrames       : 4 frames
    Codec-ID                                 : V_MPEG4/ISO/AVC
    Dauer                                    : 23 min 39s
    Bitrate                                  : 8 251 kb/s
    Breite                                   : 1 920 Pixel
    Höhe                                     : 1 080 Pixel
    Bildseitenverhältnis                     : 16:9
    Modus der Bildwiederholungsrate          : konstant
    Bildwiederholungsrate                    : 23,976 (24000/1001) FPS
    ColorSpace                               : YUV
    ChromaSubsampling/String                 : 4:2:0
    BitDepth/String                          : 8 bits
    Scantyp                                  : progressiv
    Bits/(Pixel*Frame)                       : 0.166
    Stream-Größe                             : 1,36 GiB (65%)
    verwendete Encoder-Bibliothek            : x264 core 148
    Kodierungseinstellungen                  : cabac=1 / ref=4 / deblock=1:1:1 / analyse=0x3:0 / me=hex / subme=5 / psy=0 / mixed_ref=0 / me_range=16 / chroma_me=1 / trellis=0 / 8x8dct=1 / cqm=0 / deadzone=21,11 / fast_pskip=0 / chroma_qp_offset=0 / threads=8 / lookahead_threads=2 / sliced_threads=0 / nr=0 / decimate=1 / interlaced=0 / bluray_compat=0 / constrained_intra=0 / bframes=2 / b_pyramid=0 / b_adapt=1 / b_bias=0 / direct=1 / weightb=0 / open_gop=0 / weightp=0 / keyint=24 / keyint_min=13 / scenecut=40 / intra_refresh=0 / rc=crf / mbtree=0 / crf=19.0 / qcomp=0.60 / qpmin=0 / qpmax=69 / qpstep=4 / ip_ratio=1.40 / pb_ratio=1.30 / aq=1:1.00
    Default                                  : Ja
    Forced                                   : Nein
    colour_range                             : Limited
    colour_primaries                         : BT.709
    transfer_characteristics                 : BT.709
    matrix_coefficients                      : BT.709
    
    Audio #1
    ID                                       : 2
    Format                                   : DTS
    Format/Info                              : Digital Theater Systems
    Format-Profil                            : MA / Core
    Codec-ID                                 : A_DTS
    Dauer                                    : 23 min 40s
    Bitraten-Modus                           : variabel / konstant
    Bitrate                                  : 2 175 kb/s / 1 509 kb/s
    Kanäle                                   : 2 Kanäle
    Kanal-Positionen                         : Front: L R
    Samplingrate                             : 48,0 kHz
    Bildwiederholungsrate                    : 93,750 FPS (512 SPF)
    BitDepth/String                          : 24 bits
    Compression_Mode/String                  :  / Lossy
    Stream-Größe                             : 368 MiB (17%)
    Sprache                                  : Deutsch
    Default                                  : Ja
    Forced                                   : Nein
    
    Audio #2
    ID                                       : 3
    Format                                   : DTS
    Format/Info                              : Digital Theater Systems
    Format-Profil                            : MA / Core
    Codec-ID                                 : A_DTS
    Dauer                                    : 23 min 40s
    Bitraten-Modus                           : variabel / konstant
    Bitrate                                  : 2 174 kb/s / 1 509 kb/s
    Kanäle                                   : 2 Kanäle
    Kanal-Positionen                         : Front: L R
    Samplingrate                             : 48,0 kHz
    Bildwiederholungsrate                    : 93,750 FPS (512 SPF)
    BitDepth/String                          : 24 bits
    Compression_Mode/String                  :  / Lossy
    Stream-Größe                             : 368 MiB (17%)
    Sprache                                  : Japanisch
    Default                                  : Nein
    Forced                                   : Nein
    
    Text #1
    ID                                       : 4
    Format                                   : PGS
    Muxing-Modus                             : zlib
    Codec-ID                                 : S_HDMV/PGS
    Codec-ID/Info                            : Picture based subtitle format used on BDs/HD-DVDs
    Dauer                                    : 22 min 59s
    Bitrate                                  : 489 b/s
    ElementCount                             : 6
    Stream-Größe                             : 82,4 KiB (0%)
    Sprache                                  : Deutsch
    Default                                  : Nein
    Forced                                   : Nein
    
    Text #2
    ID                                       : 5
    Format                                   : PGS
    Muxing-Modus                             : zlib
    Codec-ID                                 : S_HDMV/PGS
    Codec-ID/Info                            : Picture based subtitle format used on BDs/HD-DVDs
    Dauer                                    : 23 min 38s
    Bitrate                                  : 38,9 kb/s
    ElementCount                             : 504
    Stream-Größe                             : 6,58 MiB (0%)
    Sprache                                  : Deutsch
    Default                                  : Nein
    Forced                                   : Nein
    
    Menü
    00:00:00.000                             : en:(01)00:00:00:000
    00:01:57.992                             : en:(02)00:01:57:992
    00:10:53.194                             : en:(03)00:10:53:194
    00:22:05.866                             : en:(04)00:22:05:866
    
    


    Mirrors kompatibel

    .:Share-online.biz:. [​IMG]
    Geschützter Bereich
    Registriere dich oder logge dich ein, um den Inhalt sehen zu können
    .:Rapidgator.net:. [​IMG]
    Geschützter Bereich
    Registriere dich oder logge dich ein, um den Inhalt sehen zu können
     
    captainmebo, McFly, Ecel und 4 anderen gefällt das.