Wir verwenden Cookies, um deinen Aufenthalt auf Animes.so möglichst angenehm gestalten zu können. Mehr erfahren

Scar on the Praeter[Jap-Dub][Ger-Sub][720p|1080p][8bit|10bit][x264|x265][WebRip] - Wakanim

Dieses Thema im Forum "Download Archiv" wurde erstellt von supersonik, 27. Mai 2021.

  1. supersonik
    supersonik

    Elite Nolife

    Registriert seit:
    7. Jan. 2018
    Beiträge:
    221
    Zustimmungen:
    26.973

    Scar on the Praeter
    Project Scard: Praeter no Kizu
    PROJECT SCARD プレイタの傷
    [​IMG]

    Beschreibung:
    Erbarmungslos, brutal und gefährlich – so lässt sich Tokyos Sonderbezirk Akatsuki beschreiben, welcher von der Regierung nach einer Rebellion aufgegeben und so zu einer gesetzlosen Zone wurde. Für Gerechtigkeit und Ordnung sorgen dort seither die Scards. Diese mit besonderen Fähigkeiten gesegneten Menschen besitzen sogenannte Divine Tattoos, in denen Götter eingeschlossen sind. Jedoch geraten die einzelnen Gruppen, zu denen sich die Scards zusammengeschlossen haben – die Stadtbeschützer Helios, die kommerzielle Interessen hegende Gruppierung Artemis und die Spezialeinheit für öffentliche Sicherheit, welche aus Scard-Angehörigen der Tokyoter Polizei besteht –, regelmäßig aufgrund verschiedenster Angelegenheiten in Konflikt. Erst mit der Zeit lernen diese Menschen sich näher kennen und überwinden eine Vielzahl an Problemen; Freundschaften werden geschlossen und Vertrauen wird aufgebaut …

    Folgen: 13/13
    Größe pro Folge: ~630 MB | ~1160 MB | ~920 MB
    Releaser: Anime BluRay Junkies
    Art: Lizenzrelease
    Sprache: Japanisch
    Untertitel: Deutsch
    Jahr: 2021
    Genres: Action, Superkräfte
    Auflösung: 1280x720 | 1920x1080
    Format: MKV
    Quelle: WebRip
    Videocodec: x264 | x265
    Farbtiefe: 8bit | 10bit
    Audiocodec: AAC
    Publisher: GoHands | Wakanim
    Hoster: DDownload | Rapidgator | Uploaded


    Mediainfo:
    Code:
    General Unique ID : 59316103001965964146838353671935373793 (0x2C9FDDAB5540B0A0ADBDBC0D626231E1) Complete name : Scar.on.the.Praeter.S01E01.Subbed.AAC.720p.WebRip.x264-ABJ.mkv Format : Matroska Format version : Version 4 File size : 628 MiB Duration : 23 min 39 s Overall bit rate : 3 711 kb/s Encoded date : UTC 2021-03-11 23:20:48 Writing application : mkvmerge v53.0.0 ('Fool's Gold') 64-bit Writing library : libebml v1.4.1 + libmatroska v1.6.2 / Lavf58.42.101 Attachments : font.ttf Video ID : 1 Format : AVC Format/Info : Advanced Video Codec Format profile : High@L3.1 Format settings : CABAC / 5 Ref Frames Format settings, CABAC : Yes Format settings, Reference frames : 5 frames Codec ID : V_MPEG4/ISO/AVC Duration : 23 min 39 s Bit rate : 3 388 kb/s Width : 1 280 pixels Height : 720 pixels Display aspect ratio : 16:9 Frame rate mode : Constant Frame rate : 23.976 (24000/1001) FPS Color space : YUV Chroma subsampling : 4:2:0 Bit depth : 8 bits Scan type : Progressive Bits/(Pixel*Frame) : 0.153 Stream size : 573 MiB (91%) Default : Yes Forced : No Audio ID : 2 Format : AAC LC Format/Info : Advanced Audio Codec Low Complexity Codec ID : A_AAC-2 Duration : 23 min 39 s Bit rate : 320 kb/s Channel(s) : 4 channels Channel layout : C L R Cb Sampling rate : 48.0 kHz Frame rate : 46.875 FPS (1024 SPF) Compression mode : Lossy Stream size : 54.1 MiB (9%) Language : Japanese Default : Yes Forced : No ​
    Code:
    General Unique ID : 124493842534922093399961170551817563298 (0x5DA8A455108D07639E2517C44CA2ECA2) Complete name : Scar.on.the.Praeter.S01E01.Subbed.AAC.1080p.WebRip.x264-ABJ.mkv Format : Matroska Format version : Version 4 File size : 1.16 GiB Duration : 23 min 39 s Overall bit rate : 7 016 kb/s Encoded date : UTC 2021-03-11 23:25:57 Writing application : mkvmerge v53.0.0 ('Fool's Gold') 64-bit Writing library : libebml v1.4.1 + libmatroska v1.6.2 / Lavf58.42.101 Attachments : font.ttf Video ID : 1 Format : AVC Format/Info : Advanced Video Codec Format profile : High@L4.1 Format settings : CABAC / 4 Ref Frames Format settings, CABAC : Yes Format settings, Reference frames : 4 frames Codec ID : V_MPEG4/ISO/AVC Duration : 23 min 39 s Bit rate : 6 693 kb/s Width : 1 920 pixels Height : 1 080 pixels Display aspect ratio : 16:9 Frame rate mode : Constant Frame rate : 23.976 (24000/1001) FPS Color space : YUV Chroma subsampling : 4:2:0 Bit depth : 8 bits Scan type : Progressive Bits/(Pixel*Frame) : 0.135 Stream size : 1.11 GiB (95%) Default : Yes Forced : No Audio ID : 2 Format : AAC LC Format/Info : Advanced Audio Codec Low Complexity Codec ID : A_AAC-2 Duration : 23 min 39 s Bit rate : 320 kb/s Channel(s) : 4 channels Channel layout : C L R Cb Sampling rate : 48.0 kHz Frame rate : 46.875 FPS (1024 SPF) Compression mode : Lossy Stream size : 54.1 MiB (5%) Language : Japanese Default : Yes Forced : No ​
    Code:
    General Unique ID : 157070252769828011754916439064381652368 (0x762AA15C88653A0113C618C9742A7D90) Complete name : Scar.on.the.Praeter.S01E01.Subbed.AAC.1080p.WebRip.10bit.x265-ABJ.mkv Format : Matroska Format version : Version 4 File size : 924 MiB Duration : 23 min 39 s Overall bit rate : 5 460 kb/s Encoded date : UTC 2021-03-04 04:13:50 Writing application : mkvmerge v53.0.0 ('Fool's Gold') 64-bit Writing library : libebml v1.4.1 + libmatroska v1.6.2 Attachments : font.ttf Video ID : 1 Format : HEVC Format/Info : High Efficiency Video Coding Format profile : Main 10@L4@Main Codec ID : V_MPEGH/ISO/HEVC Duration : 23 min 39 s Bit rate : 5 137 kb/s Width : 1 920 pixels Height : 1 080 pixels Display aspect ratio : 16:9 Frame rate mode : Constant Frame rate : 23.976 (24000/1001) FPS Color space : YUV Chroma subsampling : 4:2:0 Bit depth : 10 bits Bits/(Pixel*Frame) : 0.103 Stream size : 869 MiB (94%) Default : Yes Forced : No Audio ID : 2 Format : AAC LC Format/Info : Advanced Audio Codec Low Complexity Codec ID : A_AAC-2 Duration : 23 min 39 s Bit rate : 320 kb/s Channel(s) : 4 channels Channel layout : C L R Cb Sampling rate : 48.0 kHz Frame rate : 46.875 FPS (1024 SPF) Compression mode : Lossy Stream size : 54.1 MiB (6%) Language : Japanese Default : No Forced : No ​
    720p: [​IMG]
    1080p: [​IMG]
    1080p-10bit-x265: [​IMG]
    Geschützter Bereich
    Registriere dich oder logge dich ein, um den Inhalt sehen zu können
     
    Arekusu, knanime, prinzvegeta und 3 anderen gefällt das.

Diese Seite empfehlen