Wir verwenden Cookies, um deinen Aufenthalt auf Animes.so möglichst angenehm gestalten zu können. Mehr erfahren

Seishun Buta Yarou wa Bunny Girl Senpai no Yume o Minai | Rascal Does Not Dream of Bunny Girl Senpai [Laufend][Jap-Dub][Ger-Sub][720p|1080p][WebRip] - Wakanim

Dieses Thema im Forum "Serien (GerSub)" wurde erstellt von Ta@, 3. Okt. 2018.

  1. Ta@

    Ta@ Treues Mitglied Seelenverkäufer

    Registriert seit:
    7. Juli 2016
    Beiträge:
    399
    Zustimmungen:
    10.378
    Seishun Buta Yarou wa Bunny Girl Senpai no Yume o Minai
    Rascal Does Not Dream of Bunny Girl Senpai
    That Adolescent Pig-Rascal Did Not Dream a Bunny-Girl Sempai, That Bastard Pig of Youth Doesn't See the Bunny Girl Upperclassman's Dream, Seishun Buta Yarou wa Bunny Girl Senpai no Yume wo Minai

    [​IMG]
    [​IMG]

    Sakuta Azusagawa, ein Oberschüler begegnet in der Bücherei eines Tages einem Mädchen mit Hasenohren. Ihr Name ist Mai Sakurajima und sie geht auf dieselbe Schule wie er. Sie ist eine berühmte Schauspielerin, die gerade eine Pause von der Unterhaltungsindustrie macht. Aus irgendeinem Grund können die Leute Mai seit ein paar Tagen nicht mehr sehen und so kam sie in die Bibliothek, um das zu überprüfen. Sakuta stellt sich die Frage, ob das mit dem mysteriösem Phänomen namens „Pubertätssyndrom“ zusammenhängt, worüber er im Internet gelesen hatte. Er wollte dem auf den Grund gehen und verbringt mehr Zeit mit Mai, um dieses Geheimnis zu lüften. Dabei lernt er ihre geheimen Gefühle kennen und trifft bald auf andere Mädchen mit dem „Pubertätssyndrom“.

    Folgen: 7/12
    Größe pro Folge: ~350 MB/~1180 MB
    Folgendauer: ~25 Min
    Releaser: Ta@
    Art: Lizenzrelease
    Sprache: Japanisch
    Untertitel: Deutsch
    Jahr: 2018
    Genres: Alltagsleben, Drama, Ecchi, Komödie, Romanze
    Auflösung: 1280x720/1920x1080
    Format: MKV
    Quelle: WebRip
    Videocodec: x264
    Farbtiefe: 8Bit
    Audiocodec: AAC
    Publisher: Wakanim
    Hoster: Share-Online

    [​IMG]
    Code:
    General Complete name : [Ta@]Rascal_Does_Not_Dream_of_Bunny_Girl_Senpai_01_[Web,720p,AAC].mkv Format : Matroska Format version : Version 4 File size : 349 MiB Duration : 24 min 58 s Overall bit rate : 1 956 kb/s Encoded date : UTC 2018-10-04 18:59:41 Writing application : mkvmerge v10.0.0 ('To Drown In You') 64bit Writing library : libebml v1.3.4 + libmatroska v1.4.5 Attachments : lt.ttf Video ID : 1 Format : AVC Format/Info : Advanced Video Codec Format profile : High@L4.1 Format settings : CABAC / 9 Ref Frames Format settings, CABAC : Yes Format settings, RefFrames : 9 frames Codec ID : V_MPEG4/ISO/AVC Duration : 24 min 58 s Bit rate : 1 760 kb/s Width : 1 280 pixels Height : 720 pixels Display aspect ratio : 16:9 Frame rate mode : Constant Frame rate : 23.976 (24000/1001) FPS Color space : YUV Chroma subsampling : 4:2:0 Bit depth : 8 bits Scan type : Progressive Bits/(Pixel*Frame) : 0.080 Stream size : 315 MiB (90%) Writing library : x264 core 155 r2901 7d0ff22 Encoding settings : cabac=1 / ref=9 / deblock=1:1:1 / analyse=0x3:0x133 / me=umh / subme=10 / psy=1 / psy_rd=0.40:0.00 / mixed_ref=1 / me_range=24 / chroma_me=1 / trellis=2 / 8x8dct=1 / cqm=0 / deadzone=21,11 / fast_pskip=1 / chroma_qp_offset=-2 / threads=22 / lookahead_threads=5 / sliced_threads=0 / nr=0 / decimate=1 / interlaced=0 / bluray_compat=0 / constrained_intra=0 / bframes=10 / b_pyramid=2 / b_adapt=2 / b_bias=0 / direct=3 / weightb=1 / open_gop=0 / weightp=2 / keyint=250 / keyint_min=23 / scenecut=40 / intra_refresh=0 / rc_lookahead=60 / rc=crf / mbtree=1 / crf=14.0 / qcomp=0.60 / qpmin=0 / qpmax=69 / qpstep=4 / ip_ratio=1.40 / aq=1:0.60 Default : Yes Forced : No Audio ID : 2 Format : AAC LC Format/Info : Advanced Audio Codec Low Complexity Codec ID : A_AAC-2 Duration : 24 min 58 s Bit rate : 192 kb/s Channel(s) : 2 channels Channel layout : L R Sampling rate : 48.0 kHz Frame rate : 46.875 FPS (1024 SPF) Compression mode : Lossy Delay relative to video : -21 ms Stream size : 34.5 MiB (10%) Default : Yes Forced : No ​
    Code:
    General Complete name : [Ta@]Rascal_Does_Not_Dream_of_Bunny_Girl_Senpai_01_[Web,1080p,AAC].mkv Format : Matroska Format version : Version 4 File size : 1.15 GiB Duration : 24 min 58 s Overall bit rate : 6 608 kb/s Encoded date : UTC 2018-10-04 18:59:28 Writing application : mkvmerge v10.0.0 ('To Drown In You') 64bit Writing library : libebml v1.3.4 + libmatroska v1.4.5 Attachments : lt.ttf Video ID : 1 Format : AVC Format/Info : Advanced Video Codec Format profile : High@L4.1 Format settings : CABAC / 4 Ref Frames Format settings, CABAC : Yes Format settings, RefFrames : 4 frames Codec ID : V_MPEG4/ISO/AVC Duration : 24 min 58 s Bit rate : 6 412 kb/s Width : 1 920 pixels Height : 1 080 pixels Display aspect ratio : 16:9 Frame rate mode : Constant Frame rate : 23.976 (24000/1001) FPS Color space : YUV Chroma subsampling : 4:2:0 Bit depth : 8 bits Scan type : Progressive Bits/(Pixel*Frame) : 0.129 Stream size : 1.12 GiB (97%) Writing library : x264 core 155 r2901 7d0ff22 Encoding settings : cabac=1 / ref=4 / deblock=1:1:1 / analyse=0x3:0x133 / me=umh / subme=10 / psy=1 / psy_rd=0.40:0.00 / mixed_ref=1 / me_range=24 / chroma_me=1 / trellis=2 / 8x8dct=1 / cqm=0 / deadzone=21,11 / fast_pskip=1 / chroma_qp_offset=-2 / threads=24 / lookahead_threads=6 / sliced_threads=0 / nr=0 / decimate=1 / interlaced=0 / bluray_compat=0 / constrained_intra=0 / bframes=10 / b_pyramid=2 / b_adapt=2 / b_bias=0 / direct=3 / weightb=1 / open_gop=0 / weightp=2 / keyint=250 / keyint_min=23 / scenecut=40 / intra_refresh=0 / rc_lookahead=60 / rc=crf / mbtree=1 / crf=12.0 / qcomp=0.60 / qpmin=0 / qpmax=69 / qpstep=4 / ip_ratio=1.40 / aq=1:0.60 Default : Yes Forced : No Audio ID : 2 Format : AAC LC Format/Info : Advanced Audio Codec Low Complexity Codec ID : A_AAC-2 Duration : 24 min 58 s Bit rate : 192 kb/s Channel(s) : 2 channels Channel layout : L R Sampling rate : 48.0 kHz Frame rate : 46.875 FPS (1024 SPF) Compression mode : Lossy Delay relative to video : -21 ms Stream size : 34.5 MiB (3%) Default : Yes Forced : No ​

    ANMERKUNG:
    Alle Folgen wo "Crap" anstatt "Web" im Dateinamen steht sind Speedrips und auf schlechter Qualität. Die bessere Qualität kommt in einigen Tagen nach.

    720p:[​IMG]1080p:[​IMG]

    Geschützter Bereich
    Registriere dich oder logge dich ein, um den Inhalt sehen zu können
     
    Zuletzt bearbeitet: 15. Nov. 2018 um 22:45 Uhr
    Ninelpienel, McZeRo, xXShadXx und 74 anderen gefällt das.
  2. Ta@

    Ta@ Treues Mitglied Seelenverkäufer

    Registriert seit:
    7. Juli 2016
    Beiträge:
    399
    Zustimmungen:
    10.378
    ~Folge 7 online~