1. Die erweiterte Suche funktioniert wieder. Die LiveSearch ist vorübergehend deaktiviert

Wir verwenden Cookies, um deinen Aufenthalt auf Animes.so möglichst angenehm gestalten zu können. Mehr erfahren

Shingeki no Kyojin Season 3 | Attack on Titan Staffel 3 [Jap-Dub][Ger-Sub][720p|1080p Plus][WebRip] - AoD

Dieses Thema im Forum "Serien (GerSub)" wurde erstellt von Ta@, 22. Juli 2018.

  1. Ta@

    Ta@ Treues Mitglied Seelenverkäufer

    Registriert seit:
    7. Juli 2016
    Beiträge:
    428
    Zustimmungen:
    17.899
    Shingeki no Kyojin Season 3
    Attack on Titan Season 3, AoT 3, Shingeki no Kyojin (2018), SnK 3

    [​IMG]
    [​IMG]
    Nachdem einige große Geheimnisse in der zweiten Staffel gelüftet wurden, muss sich der Aufklärungstrupp weiteren bösen Überraschungen innerhalb der Mauer stellen. Doch nicht nur politische Intrigen sind am Werk, sondern auch jemand aus Levis Vergangenheit taucht auf …


    Folgen: 13/24
    Größe pro Folge: ~350 MB/~1360 MB
    Folgendauer: ~24 Min
    Releaser: Ta@
    Art: Lizenzrelease
    Sprache: Japanisch
    Untertitel: Deutsch
    Genres: Abenteuer, Action, Drama, Horror, Mystery, Psychodrama, Übermäßige Gewaltdarstellung
    Jahr: 2018
    Auflösung: 1280x720/1920x1080
    Format: MKV
    Quelle: WebRip
    Videocodec: x264
    Farbtiefe: 8Bit
    Audiocodec: AAC
    Hoster: Share-Online

    [​IMG]
    Code:
    General Complete name : [Ta@]Attack_on_Titan_GerSub_S03E01_[Web,720,AAC].mkv Format : Matroska Format version : Version 4 / Version 2 File size : 346 MiB Duration : 23 min 55 s Overall bit rate : 2 025 kb/s Encoded date : UTC 2018-07-22 18:10:56 Writing application : mkvmerge v10.0.0 ('To Drown In You') 64bit Writing library : libebml v1.3.4 + libmatroska v1.4.5 Attachments : lt.ttf / ltf.ttf Video ID : 1 Format : AVC Format/Info : Advanced Video Codec Format profile : High@L4 Format settings : CABAC / 9 Ref Frames Format settings, CABAC : Yes Format settings, RefFrames : 9 frames Codec ID : V_MPEG4/ISO/AVC Duration : 23 min 55 s Bit rate : 1 765 kb/s Width : 1 280 pixels Height : 720 pixels Display aspect ratio : 16:9 Frame rate mode : Constant Frame rate : 23.976 (24000/1001) FPS Color space : YUV Chroma subsampling : 4:2:0 Bit depth : 8 bits Scan type : Progressive Bits/(Pixel*Frame) : 0.080 Stream size : 302 MiB (87%) Writing library : x264 core 152 r2851 ba24899 Encoding settings : cabac=1 / ref=9 / deblock=1:0:-1 / analyse=0x3:0x133 / me=umh / subme=10 / psy=1 / psy_rd=0.60:0.10 / mixed_ref=1 / me_range=24 / chroma_me=1 / trellis=2 / 8x8dct=1 / cqm=0 / deadzone=21,11 / fast_pskip=1 / chroma_qp_offset=-3 / threads=22 / lookahead_threads=5 / sliced_threads=0 / nr=0 / decimate=0 / interlaced=0 / bluray_compat=0 / constrained_intra=0 / bframes=16 / b_pyramid=2 / b_adapt=2 / b_bias=0 / direct=3 / weightb=1 / open_gop=0 / weightp=2 / keyint=192 / keyint_min=19 / scenecut=0 / intra_refresh=0 / rc_lookahead=80 / rc=crf / mbtree=1 / crf=17.0 / qcomp=0.60 / qpmin=0 / qpmax=69 / qpstep=4 / vbv_maxrate=4096 / vbv_bufsize=10240 / crf_max=0.0 / nal_hrd=none / filler=0 / ip_ratio=1.40 / aq=3:1.10 Default : Yes Forced : No Audio ID : 2 Format : AAC Format/Info : Advanced Audio Codec Format profile : LC Codec ID : A_AAC-2 Duration : 23 min 55 s Bit rate : 256 kb/s Channel(s) : 2 channels Channel positions : Front: L R Sampling rate : 48.0 kHz Frame rate : 46.875 FPS (1024 SPF) Compression mode : Lossy Delay relative to video : -83 ms Stream size : 43.8 MiB (13%) Default : Yes Forced : No ​
    Code:
    General Complete name : [Ta@]Attack_on_Titan_GerSub_S03E01_[Web,1080pPlus,AAC].mkv Format : Matroska Format version : Version 4 / Version 2 File size : 1.33 GiB Duration : 23 min 55 s Overall bit rate : 7 958 kb/s Encoded date : UTC 2018-07-22 18:15:25 Writing application : mkvmerge v10.0.0 ('To Drown In You') 64bit Writing library : libebml v1.3.4 + libmatroska v1.4.5 Attachments : lt.ttf / ltf.ttf Video ID : 1 Format : AVC Format/Info : Advanced Video Codec Format profile : High@L5 Format settings : CABAC / 12 Ref Frames Format settings, CABAC : Yes Format settings, RefFrames : 12 frames Codec ID : V_MPEG4/ISO/AVC Duration : 23 min 55 s Bit rate : 7 699 kb/s Width : 1 920 pixels Height : 1 080 pixels Display aspect ratio : 16:9 Frame rate mode : Constant Frame rate : 23.976 (24000/1001) FPS Color space : YUV Chroma subsampling : 4:2:0 Bit depth : 8 bits Scan type : Progressive Bits/(Pixel*Frame) : 0.155 Stream size : 1.29 GiB (97%) Writing library : x264 core 152 r2851 ba24899 Encoding settings : cabac=1 / ref=12 / deblock=1:0:-1 / analyse=0x3:0x133 / me=umh / subme=10 / psy=1 / psy_rd=0.70:0.15 / mixed_ref=1 / me_range=24 / chroma_me=1 / trellis=2 / 8x8dct=1 / cqm=0 / deadzone=21,11 / fast_pskip=1 / chroma_qp_offset=-3 / threads=24 / lookahead_threads=6 / sliced_threads=0 / nr=0 / decimate=0 / interlaced=0 / bluray_compat=0 / constrained_intra=0 / bframes=16 / b_pyramid=2 / b_adapt=2 / b_bias=0 / direct=3 / weightb=1 / open_gop=0 / weightp=2 / keyint=192 / keyint_min=19 / scenecut=0 / intra_refresh=0 / rc_lookahead=80 / rc=crf / mbtree=1 / crf=15.0 / qcomp=0.60 / qpmin=0 / qpmax=69 / qpstep=4 / vbv_maxrate=20480 / vbv_bufsize=40960 / crf_max=0.0 / nal_hrd=none / filler=0 / ip_ratio=1.40 / aq=3:1.10 Default : Yes Forced : No Audio ID : 2 Format : AAC Format/Info : Advanced Audio Codec Format profile : LC Codec ID : A_AAC-2 Duration : 23 min 55 s Bit rate : 256 kb/s Channel(s) : 2 channels Channel positions : Front: L R Sampling rate : 48.0 kHz Frame rate : 46.875 FPS (1024 SPF) Compression mode : Lossy Delay relative to video : -83 ms Stream size : 43.8 MiB (3%) Default : Yes Forced : No ​

    720p:[​IMG]1080p:[​IMG]

    Geschützter Bereich
    Registriere dich oder logge dich ein, um den Inhalt sehen zu können
     
    Zuletzt bearbeitet: 28. Apr. 2019
    Merkartor, Sevion, Kioyuu und 255 anderen gefällt das.
  2. ClipperSunny

    ClipperSunny 100% Anime Otaku König

    Registriert seit:
    27. Jan. 2018
    Beiträge:
    331
    Zustimmungen:
    10.775
    Shingeki no Kyojin Season 3
    Attack on Titan Season 3
    Attack on Titan Staffel 3

    [​IMG]
    Shingeki no Kyojin Season 3 | Attack on Titan Staffel 3 [Jap-Dub][Ger-Sub][AAC][720p|1080p|1080p Plus][WebRip] - Fuuko

    Animeinformationen
    Kurzbeschreibung by AniSearch.de
    Nachdem einige große Geheimnisse in der zweiten Staffel gelüftet wurden, muss sich der Aufklärungstrupp weiteren bösen Überraschungen innerhalb der Mauer stellen. Doch nicht nur politische Intrigen sind am Werk, sondern auch jemand aus Levis Vergangenheit taucht auf …


    Studio: WIT STUDIO, Inc.
    Genre: Actiondrama
    Nebengenre: Abenteuer, Action, Drama, Horror, Mystery, Psychodrama, Übermäßige Gewaltdarstellung
    Spieldauer: 24 Min.
    Jahr: 2018

    Releaseinformationen
    Episoden: 12 / 24
    Sprache:
    Japanisch
    Untertitel: Deutsch
    Publisher: Kazé Deutschland
    Release-Gruppe: Fuuko
    Quelle: WebRip
    Format: MKV
    Video-Codec: x264
    Farbtiefe: 8bit
    Audio-Codec: AAC
    Audio-Kanäle: JAP AAC 2.0
    Auflösung: 720p | 1080p | 1080p Plus
    Größe: 346 MB | 570 MB | 1.33 GB
    Hoster: Share-Online.biz

    Mediainfo
    Code:
    General
    Complete name               : Attack.on.Titan.S03E01.GerSub.720p.WebHD.x264-Fuuko.mkv
    Format                      : Matroska
    Format version              : Version 4 / Version 2
    File size                   : 346 MiB
    Duration                    : 23 min 55 s
    Overall bit rate            : 2 024 kb/s
    Encoded date                : UTC 2018-07-22 18:22:43
    Writing application         : mkvmerge v17.0.0 ('Be Ur Friend') 64-bit
    Writing library             : libebml v1.3.5 + libmatroska v1.4.8
    
    Video
    ID                          : 1
    Format                      : AVC
    Format/Info                 : Advanced Video Codec
    Format profile              : High@L4
    Format settings             : CABAC / 9 Ref Frames
    Format settings, CABAC      : Yes
    Format settings, ReFrames   : 9 frames
    Codec ID                    : V_MPEG4/ISO/AVC
    Duration                    : 23 min 55 s
    Bit rate                    : 1 765 kb/s
    Width                       : 1 280 pixels
    Height                      : 720 pixels
    Display aspect ratio        : 16:9
    Frame rate mode             : Constant
    Frame rate                  : 23.976 (24000/1001) FPS
    Color space                 : YUV
    Chroma subsampling          : 4:2:0
    Bit depth                   : 8 bits
    Scan type                   : Progressive
    Bits/(Pixel*Frame)          : 0.080
    Stream size                 : 302 MiB (87%)
    Writing library             : x264 core 152 r2851 ba24899
    Encoding settings           : cabac=1 / ref=9 / deblock=1:0:-1 / analyse=0x3:0x133 / me=umh / subme=10 / psy=1 / psy_rd=0.60:0.10 / mixed_ref=1 / me_range=24 / chroma_me=1 / trellis=2 / 8x8dct=1 / cqm=0 / deadzone=21,11 / fast_pskip=1 / chroma_qp_offset=-3 / threads=22 / lookahead_threads=5 / sliced_threads=0 / nr=0 / decimate=0 / interlaced=0 / bluray_compat=0 / constrained_intra=0 / bframes=16 / b_pyramid=2 / b_adapt=2 / b_bias=0 / direct=3 / weightb=1 / open_gop=0 / weightp=2 / keyint=192 / keyint_min=19 / scenecut=0 / intra_refresh=0 / rc_lookahead=80 / rc=crf / mbtree=1 / crf=17.0 / qcomp=0.60 / qpmin=0 / qpmax=69 / qpstep=4 / vbv_maxrate=4096 / vbv_bufsize=10240 / crf_max=0.0 / nal_hrd=none / filler=0 / ip_ratio=1.40 / aq=3:1.10
    Default                     : Yes
    Forced                      : No
    
    Audio
    ID                          : 2
    Format                      : AAC
    Format/Info                 : Advanced Audio Codec
    Format profile              : LC
    Codec ID                    : A_AAC-2
    Duration                    : 23 min 55 s
    Bit rate                    : 256 kb/s
    Channel(s)                  : 2 channels
    Channel positions           : Front: L R
    Sampling rate               : 48.0 kHz
    Frame rate                  : 46.875 FPS (1024 SPF)
    Compression mode            : Lossy
    Delay relative to video     : -83 ms
    Stream size                 : 43.8 MiB (13%)
    Default                     : Yes
    Forced                      : No
    
    Code:
    General
    Complete name               : Attack.on.Titan.S03E01.GerSub.1080p.WebHD.x264-Fuuko.mkv
    Format                      : Matroska
    Format version              : Version 4 / Version 2
    File size                   : 570 MiB
    Duration                    : 23 min 55 s
    Overall bit rate            : 3 331 kb/s
    Encoded date                : UTC 2018-07-22 18:31:05
    Writing application         : mkvmerge v17.0.0 ('Be Ur Friend') 64-bit
    Writing library             : libebml v1.3.5 + libmatroska v1.4.8
    
    Video
    ID                          : 1
    Format                      : AVC
    Format/Info                 : Advanced Video Codec
    Format profile              : High@L5
    Format settings             : CABAC / 12 Ref Frames
    Format settings, CABAC      : Yes
    Format settings, ReFrames   : 12 frames
    Codec ID                    : V_MPEG4/ISO/AVC
    Duration                    : 23 min 55 s
    Bit rate                    : 3 071 kb/s
    Width                       : 1 920 pixels
    Height                      : 1 080 pixels
    Display aspect ratio        : 16:9
    Frame rate mode             : Constant
    Frame rate                  : 23.976 (24000/1001) FPS
    Color space                 : YUV
    Chroma subsampling          : 4:2:0
    Bit depth                   : 8 bits
    Scan type                   : Progressive
    Bits/(Pixel*Frame)          : 0.062
    Stream size                 : 525 MiB (92%)
    Writing library             : x264 core 152 r2851 ba24899
    Encoding settings           : cabac=1 / ref=12 / deblock=1:0:-1 / analyse=0x3:0x133 / me=umh / subme=10 / psy=1 / psy_rd=0.60:0.10 / mixed_ref=1 / me_range=24 / chroma_me=1 / trellis=2 / 8x8dct=1 / cqm=0 / deadzone=21,11 / fast_pskip=1 / chroma_qp_offset=-3 / threads=24 / lookahead_threads=6 / sliced_threads=0 / nr=0 / decimate=0 / interlaced=0 / bluray_compat=0 / constrained_intra=0 / bframes=16 / b_pyramid=2 / b_adapt=2 / b_bias=0 / direct=3 / weightb=1 / open_gop=0 / weightp=2 / keyint=192 / keyint_min=19 / scenecut=0 / intra_refresh=0 / rc_lookahead=80 / rc=crf / mbtree=1 / crf=18.0 / qcomp=0.60 / qpmin=0 / qpmax=69 / qpstep=4 / vbv_maxrate=6144 / vbv_bufsize=15360 / crf_max=0.0 / nal_hrd=none / filler=0 / ip_ratio=1.40 / aq=3:1.10
    Default                     : Yes
    Forced                      : No
    
    Audio
    ID                          : 2
    Format                      : AAC
    Format/Info                 : Advanced Audio Codec
    Format profile              : LC
    Codec ID                    : A_AAC-2
    Duration                    : 23 min 55 s
    Bit rate                    : 256 kb/s
    Channel(s)                  : 2 channels
    Channel positions           : Front: L R
    Sampling rate               : 48.0 kHz
    Frame rate                  : 46.875 FPS (1024 SPF)
    Compression mode            : Lossy
    Delay relative to video     : -83 ms
    Stream size                 : 43.8 MiB (8%)
    Default                     : Yes
    Forced                      : No
    
    Code:
    General
    Complete name               : Attack.on.Titan.S03E01.GerSub.1080p.Plus.WebHD.x264-Fuuko.mkv
    Format                      : Matroska
    Format version              : Version 4 / Version 2
    File size                   : 1.33 GiB
    Duration                    : 23 min 55 s
    Overall bit rate            : 7 958 kb/s
    Encoded date                : UTC 2018-07-22 18:42:17
    Writing application         : mkvmerge v17.0.0 ('Be Ur Friend') 64-bit
    Writing library             : libebml v1.3.5 + libmatroska v1.4.8
    
    Video
    ID                          : 1
    Format                      : AVC
    Format/Info                 : Advanced Video Codec
    Format profile              : High@L5
    Format settings             : CABAC / 12 Ref Frames
    Format settings, CABAC      : Yes
    Format settings, ReFrames   : 12 frames
    Codec ID                    : V_MPEG4/ISO/AVC
    Duration                    : 23 min 55 s
    Bit rate                    : 7 699 kb/s
    Width                       : 1 920 pixels
    Height                      : 1 080 pixels
    Display aspect ratio        : 16:9
    Frame rate mode             : Constant
    Frame rate                  : 23.976 (24000/1001) FPS
    Color space                 : YUV
    Chroma subsampling          : 4:2:0
    Bit depth                   : 8 bits
    Scan type                   : Progressive
    Bits/(Pixel*Frame)          : 0.155
    Stream size                 : 1.29 GiB (97%)
    Writing library             : x264 core 152 r2851 ba24899
    Encoding settings           : cabac=1 / ref=12 / deblock=1:0:-1 / analyse=0x3:0x133 / me=umh / subme=10 / psy=1 / psy_rd=0.70:0.15 / mixed_ref=1 / me_range=24 / chroma_me=1 / trellis=2 / 8x8dct=1 / cqm=0 / deadzone=21,11 / fast_pskip=1 / chroma_qp_offset=-3 / threads=24 / lookahead_threads=6 / sliced_threads=0 / nr=0 / decimate=0 / interlaced=0 / bluray_compat=0 / constrained_intra=0 / bframes=16 / b_pyramid=2 / b_adapt=2 / b_bias=0 / direct=3 / weightb=1 / open_gop=0 / weightp=2 / keyint=192 / keyint_min=19 / scenecut=0 / intra_refresh=0 / rc_lookahead=80 / rc=crf / mbtree=1 / crf=15.0 / qcomp=0.60 / qpmin=0 / qpmax=69 / qpstep=4 / vbv_maxrate=20480 / vbv_bufsize=40960 / crf_max=0.0 / nal_hrd=none / filler=0 / ip_ratio=1.40 / aq=3:1.10
    Default                     : Yes
    Forced                      : No
    
    Audio
    ID                          : 2
    Format                      : AAC
    Format/Info                 : Advanced Audio Codec
    Format profile              : LC
    Codec ID                    : A_AAC-2
    Duration                    : 23 min 55 s
    Bit rate                    : 256 kb/s
    Channel(s)                  : 2 channels
    Channel positions           : Front: L R
    Sampling rate               : 48.0 kHz
    Frame rate                  : 46.875 FPS (1024 SPF)
    Compression mode            : Lossy
    Delay relative to video     : -83 ms
    Stream size                 : 43.8 MiB (3%)
    Default                     : Yes
    Forced                      : No
    
    [​IMG]
    Onlinestatus:
    [​IMG]720p | [​IMG]1080p | [​IMG]1080p Plus
    Geschützter Bereich
    Registriere dich oder logge dich ein, um den Inhalt sehen zu können
    Synonyme
    AoT 3, Shingeki no Kyojin (2018), SnK 3​
     
    Zuletzt bearbeitet: 15. Okt. 2018
  3. Fuuko

    Fuuko Kleiner Experte Otaku Experte

    Registriert seit:
    19. Sep. 2018
    Beiträge:
    126
    Zustimmungen:
    4.085
    Shingeki no Kyojin Season 3
    Attack on Titan Season 3
    Attack on Titan Staffel 3

    [​IMG]
    [​IMG]
    Nachdem einige große Geheimnisse in der zweiten Staffel gelüftet wurden, muss sich der Aufklärungstrupp weiteren bösen Überraschungen innerhalb der Mauer stellen. Doch nicht nur politische Intrigen sind am Werk, sondern auch jemand aus Levis Vergangenheit taucht auf …​

    [​IMG]
    Episoden: 22 / 22
    Spieldauer: 24 Min.
    Source: WebRip
    Format: MKV
    Video-Codec: x264
    Audio-Codec: AAC
    Sprache: Japanisch
    Untertitel: Deutsch
    Publisher: Kazé Deutschland
    Auflösung: 720p | 1080p | 1080p Plus
    Größe: 350 MB | 600 MB | 1400 MB
    Parts: je 1000 MB
    Code:
    Format                      : Matroska
    Format version              : Version 4 / Version 2
    File size                   : 346 MiB
    Duration                    : 23mn 55s
    Overall bit rate            : 2 024 Kbps
    Encoded date                : UTC 2018-07-22 18:22:43
    Writing application         : mkvmerge v17.0.0 ('Be Ur Friend') 64-bit
    Writing library             : libebml v1.3.5 + libmatroska v1.4.8
    
    Video
    ID                          : 1
    Format                      : AVC
    Format/Info                 : Advanced Video Codec
    Format profile              : High@L4
    Format settings, CABAC      : Yes
    Format settings, ReFrames   : 9 frames
    Codec ID                    : V_MPEG4/ISO/AVC
    Duration                    : 23mn 55s
    Bit rate                    : 1 765 Kbps
    Width                       : 1 280 pixels
    Height                      : 720 pixels
    Display aspect ratio        : 16:9
    Frame rate mode             : Constant
    Frame rate                  : 23.976 (24000/1001) fps
    Color space                 : YUV
    Chroma subsampling          : 4:2:0
    Bit depth                   : 8 bits
    Scan type                   : Progressive
    Bits/(Pixel*Frame)          : 0.080
    Stream size                 : 302 MiB (87%)
    Writing library             : x264 core 152 r2851 ba24899
    Encoding settings           : cabac=1 / ref=9 / deblock=1:0:-1 / analyse=0x3:0x133 / me=umh / subme=10 / psy=1 / psy_rd=0.60:0.10 / mixed_ref=1 / me_range=24 / chroma_me=1 / trellis=2 / 8x8dct=1 / cqm=0 / deadzone=21,11 / fast_pskip=1 / chroma_qp_offset=-3 / threads=22 / lookahead_threads=5 / sliced_threads=0 / nr=0 / decimate=0 / interlaced=0 / bluray_compat=0 / constrained_intra=0 / bframes=16 / b_pyramid=2 / b_adapt=2 / b_bias=0 / direct=3 / weightb=1 / open_gop=0 / weightp=2 / keyint=192 / keyint_min=19 / scenecut=0 / intra_refresh=0 / rc_lookahead=80 / rc=crf / mbtree=1 / crf=17.0 / qcomp=0.60 / qpmin=0 / qpmax=69 / qpstep=4 / vbv_maxrate=4096 / vbv_bufsize=10240 / crf_max=0.0 / nal_hrd=none / filler=0 / ip_ratio=1.40 / aq=3:1.10
    Default                     : Yes
    Forced                      : No
    
    Audio
    ID                          : 2
    Format                      : AAC
    Format/Info                 : Advanced Audio Codec
    Format profile              : LC
    Codec ID                    : A_AAC
    Duration                    : 23mn 55s
    Bit rate                    : 256 Kbps
    Channel(s)                  : 2 channels
    Channel positions           : Front: L R
    Sampling rate               : 48.0 KHz
    Frame rate                  : 46.875 fps (1024 spf)
    Compression mode            : Lossy
    Delay relative to video     : -83ms
    Stream size                 : 43.8 MiB (13%)
    Default                     : Yes
    Forced                      : No
    Code:
    Format                      : Matroska
    Format version              : Version 4 / Version 2
    File size                   : 570 MiB
    Duration                    : 23mn 55s
    Overall bit rate            : 3 331 Kbps
    Encoded date                : UTC 2018-07-22 18:31:05
    Writing application         : mkvmerge v17.0.0 ('Be Ur Friend') 64-bit
    Writing library             : libebml v1.3.5 + libmatroska v1.4.8
    
    Video
    ID                          : 1
    Format                      : AVC
    Format/Info                 : Advanced Video Codec
    Format profile              : High@L5
    Format settings, CABAC      : Yes
    Format settings, ReFrames   : 12 frames
    Codec ID                    : V_MPEG4/ISO/AVC
    Duration                    : 23mn 55s
    Bit rate                    : 3 071 Kbps
    Width                       : 1 920 pixels
    Height                      : 1 080 pixels
    Display aspect ratio        : 16:9
    Frame rate mode             : Constant
    Frame rate                  : 23.976 (24000/1001) fps
    Color space                 : YUV
    Chroma subsampling          : 4:2:0
    Bit depth                   : 8 bits
    Scan type                   : Progressive
    Bits/(Pixel*Frame)          : 0.062
    Stream size                 : 525 MiB (92%)
    Writing library             : x264 core 152 r2851 ba24899
    Encoding settings           : cabac=1 / ref=12 / deblock=1:0:-1 / analyse=0x3:0x133 / me=umh / subme=10 / psy=1 / psy_rd=0.60:0.10 / mixed_ref=1 / me_range=24 / chroma_me=1 / trellis=2 / 8x8dct=1 / cqm=0 / deadzone=21,11 / fast_pskip=1 / chroma_qp_offset=-3 / threads=24 / lookahead_threads=6 / sliced_threads=0 / nr=0 / decimate=0 / interlaced=0 / bluray_compat=0 / constrained_intra=0 / bframes=16 / b_pyramid=2 / b_adapt=2 / b_bias=0 / direct=3 / weightb=1 / open_gop=0 / weightp=2 / keyint=192 / keyint_min=19 / scenecut=0 / intra_refresh=0 / rc_lookahead=80 / rc=crf / mbtree=1 / crf=18.0 / qcomp=0.60 / qpmin=0 / qpmax=69 / qpstep=4 / vbv_maxrate=6144 / vbv_bufsize=15360 / crf_max=0.0 / nal_hrd=none / filler=0 / ip_ratio=1.40 / aq=3:1.10
    Default                     : Yes
    Forced                      : No
    
    Audio
    ID                          : 2
    Format                      : AAC
    Format/Info                 : Advanced Audio Codec
    Format profile              : LC
    Codec ID                    : A_AAC
    Duration                    : 23mn 55s
    Bit rate                    : 256 Kbps
    Channel(s)                  : 2 channels
    Channel positions           : Front: L R
    Sampling rate               : 48.0 KHz
    Frame rate                  : 46.875 fps (1024 spf)
    Compression mode            : Lossy
    Delay relative to video     : -83ms
    Stream size                 : 43.8 MiB (8%)
    Default                     : Yes
    Forced                      : No
    
    Code:
    Format                      : Matroska
    Format version              : Version 4 / Version 2
    File size                   : 1.33 GiB
    Duration                    : 23mn 55s
    Overall bit rate            : 7 958 Kbps
    Encoded date                : UTC 2018-07-22 18:42:17
    Writing application         : mkvmerge v17.0.0 ('Be Ur Friend') 64-bit
    Writing library             : libebml v1.3.5 + libmatroska v1.4.8
    
    Video
    ID                          : 1
    Format                      : AVC
    Format/Info                 : Advanced Video Codec
    Format profile              : High@L5
    Format settings, CABAC      : Yes
    Format settings, ReFrames   : 12 frames
    Codec ID                    : V_MPEG4/ISO/AVC
    Duration                    : 23mn 55s
    Bit rate                    : 7 699 Kbps
    Width                       : 1 920 pixels
    Height                      : 1 080 pixels
    Display aspect ratio        : 16:9
    Frame rate mode             : Constant
    Frame rate                  : 23.976 (24000/1001) fps
    Color space                 : YUV
    Chroma subsampling          : 4:2:0
    Bit depth                   : 8 bits
    Scan type                   : Progressive
    Bits/(Pixel*Frame)          : 0.155
    Stream size                 : 1.29 GiB (97%)
    Writing library             : x264 core 152 r2851 ba24899
    Encoding settings           : cabac=1 / ref=12 / deblock=1:0:-1 / analyse=0x3:0x133 / me=umh / subme=10 / psy=1 / psy_rd=0.70:0.15 / mixed_ref=1 / me_range=24 / chroma_me=1 / trellis=2 / 8x8dct=1 / cqm=0 / deadzone=21,11 / fast_pskip=1 / chroma_qp_offset=-3 / threads=24 / lookahead_threads=6 / sliced_threads=0 / nr=0 / decimate=0 / interlaced=0 / bluray_compat=0 / constrained_intra=0 / bframes=16 / b_pyramid=2 / b_adapt=2 / b_bias=0 / direct=3 / weightb=1 / open_gop=0 / weightp=2 / keyint=192 / keyint_min=19 / scenecut=0 / intra_refresh=0 / rc_lookahead=80 / rc=crf / mbtree=1 / crf=15.0 / qcomp=0.60 / qpmin=0 / qpmax=69 / qpstep=4 / vbv_maxrate=20480 / vbv_bufsize=40960 / crf_max=0.0 / nal_hrd=none / filler=0 / ip_ratio=1.40 / aq=3:1.10
    Default                     : Yes
    Forced                      : No
    
    Audio
    ID                          : 2
    Format                      : AAC
    Format/Info                 : Advanced Audio Codec
    Format profile              : LC
    Codec ID                    : A_AAC
    Duration                    : 23mn 55s
    Bit rate                    : 256 Kbps
    Channel(s)                  : 2 channels
    Channel positions           : Front: L R
    Sampling rate               : 48.0 KHz
    Frame rate                  : 46.875 fps (1024 spf)
    Compression mode            : Lossy
    Delay relative to video     : -83ms
    Stream size                 : 43.8 MiB (3%)
    Default                     : Yes
    Forced                      : No
    [​IMG]
    720p [​IMG]
    1080p [​IMG]
    1080p Plus [​IMG]

    Geschützter Bereich
    Registriere dich oder logge dich ein, um den Inhalt sehen zu können
     
    Zuletzt bearbeitet: 30. Juni 2019
    Merkartor, Sevion, proakdag und 159 anderen gefällt das.
  4. Fuuko

    Fuuko Kleiner Experte Otaku Experte

    Registriert seit:
    19. Sep. 2018
    Beiträge:
    126
    Zustimmungen:
    4.085
    ~ Episode 22 - Die andere Seite der Mauer ~
    Staffel abgeschlossen
     
    Zuletzt bearbeitet: 30. Juni 2019
    sabs0686, Kirdock, Magicmanx und 2 anderen gefällt das.