1. Die erweiterte Suche funktioniert wieder. Die LiveSearch ist vorübergehend deaktiviert

Wir verwenden Cookies, um deinen Aufenthalt auf Animes.so möglichst angenehm gestalten zu können. Mehr erfahren

Shokugeki no Souma: San no Sara | Food Wars! The Third Plate S03 [Laufend][Ger-Dub][480p|720p|1080p|1080p Plus][WebRip] - AoD

Dieses Thema im Forum "Serien (GerDub)" wurde erstellt von Fuuko, 18. Juni 2019.

  1. Fuuko

    Fuuko Kleiner Experte Otaku Experte

    Registriert seit:
    19. Sep. 2018
    Beiträge:
    140
    Zustimmungen:
    4.899
    Shokugeki no Souma: San no Sara
    Food Wars! The Third Plate
    Food Wars! Staffel 3


    [​IMG]

    [​IMG]
    [​IMG]
    Episoden: 06 / 12
    Spieldauer: 24 Min.
    Source: anime-on-demand
    Release by: Fuuko
    Format: mkv
    Sprache: Deutsch [2.0]
    Untertitel: Überschriften & Schilder (Hard Sub)
    Audio: AAC [192 kb/s] | AAC [256 kb/s]
    Auflösung : 856x480 | 1280x720 | 1920x1080
    Größe: 200MB | 450MB | 700MB | 1600MB
    Code:
    Complete name               : Food.Wars!.The.Third.Plate.E01.GerDub.480p.WebRip.x264-Fuuko.mkv
    Format                      : Matroska
    Format version              : Version 4
    File size                   : 170 MiB
    Duration                    : 24 min 11 s
    Overall bit rate            : 983 kb/s
    Encoded date                : UTC 2019-06-18 17:07:22
    Writing application         : mkvmerge v10.0.0 ('To Drown In You') 64bit
    Writing library             : libebml v1.3.4 + libmatroska v1.4.5
    
    Video
    ID                          : 1
    Format                      : AVC
    Format/Info                 : Advanced Video Codec
    Format profile              : Main@L4
    Format settings             : CABAC / 6 Ref Frames
    Format settings, CABAC      : Yes
    Format settings, ReFrames   : 6 frames
    Codec ID                    : V_MPEG4/ISO/AVC
    Duration                    : 24 min 11 s
    Bit rate                    : 788 kb/s
    Width                       : 856 pixels
    Height                      : 480 pixels
    Display aspect ratio        : 16:9
    Original display aspect rat : 16:9
    Frame rate mode             : Variable
    Frame rate                  : 23.976 FPS
    Color space                 : YUV
    Chroma subsampling          : 4:2:0
    Bit depth                   : 8 bits
    Scan type                   : Progressive
    Bits/(Pixel*Frame)          : 0.080
    Stream size                 : 136 MiB (80%)
    Writing library             : x264 core 157 r2969 d4099dd
    Encoding settings           : cabac=1 / ref=6 / deblock=1:1:1 / analyse=0x1:0x111 / me=umh / subme=8 / psy=1 / psy_rd=0.50:0.05 / mixed_ref=1 / me_range=20 / chroma_me=1 / trellis=2 / 8x8dct=0 / cqm=0 / deadzone=21,11 / fast_pskip=1 / chroma_qp_offset=-3 / threads=12 / lookahead_threads=3 / sliced_threads=0 / nr=0 / decimate=0 / interlaced=0 / bluray_compat=0 / constrained_intra=0 / bframes=6 / b_pyramid=2 / b_adapt=2 / b_bias=0 / direct=3 / weightb=1 / open_gop=0 / weightp=2 / keyint=192 / keyint_min=19 / scenecut=0 / intra_refresh=0 / rc_lookahead=80 / rc=crf / mbtree=1 / crf=19.0 / qcomp=0.60 / qpmin=0 / qpmax=69 / qpstep=4 / vbv_maxrate=1024 / vbv_bufsize=2560 / crf_max=0.0 / nal_hrd=none / filler=0 / ip_ratio=1.40 / aq=3:0.80
    Default                     : Yes
    Forced                      : No
    
    Audio
    ID                          : 2
    Format                      : AAC LC
    Format/Info                 : Advanced Audio Codec Low Complexity
    Codec ID                    : A_AAC-2
    Duration                    : 24 min 11 s
    Bit rate                    : 192 kb/s
    Channel(s)                  : 2 channels
    Channel layout              : L R
    Sampling rate               : 48.0 kHz
    Frame rate                  : 46.875 FPS (1024 SPF)
    Compression mode            : Lossy
    Delay relative to video     : -83 ms
    Stream size                 : 33.2 MiB (20%)
    Default                     : Yes
    Forced                      : No
    Code:
    Complete name               : Food.Wars!.The.Third.Plate.E01.GerDub.720p.WebHD.x264-Fuuko.mkv
    Format                      : Matroska
    Format version              : Version 4
    File size                   : 424 MiB
    Duration                    : 24 min 11 s
    Overall bit rate            : 2 450 kb/s
    Encoded date                : UTC 2019-06-18 17:09:17
    Writing application         : mkvmerge v10.0.0 ('To Drown In You') 64bit
    Writing library             : libebml v1.3.4 + libmatroska v1.4.5
    
    Video
    ID                          : 1
    Format                      : AVC
    Format/Info                 : Advanced Video Codec
    Format profile              : High@L4
    Format settings             : CABAC / 9 Ref Frames
    Format settings, CABAC      : Yes
    Format settings, ReFrames   : 9 frames
    Codec ID                    : V_MPEG4/ISO/AVC
    Duration                    : 24 min 11 s
    Bit rate                    : 2 191 kb/s
    Width                       : 1 280 pixels
    Height                      : 720 pixels
    Display aspect ratio        : 16:9
    Frame rate mode             : Constant
    Frame rate                  : 23.976 (24000/1001) FPS
    Color space                 : YUV
    Chroma subsampling          : 4:2:0
    Bit depth                   : 8 bits
    Scan type                   : Progressive
    Bits/(Pixel*Frame)          : 0.099
    Stream size                 : 379 MiB (89%)
    Writing library             : x264 core 157 r2969 d4099dd
    Encoding settings           : cabac=1 / ref=9 / deblock=1:0:-1 / analyse=0x3:0x133 / me=umh / subme=10 / psy=1 / psy_rd=0.60:0.10 / mixed_ref=1 / me_range=24 / chroma_me=1 / trellis=2 / 8x8dct=1 / cqm=0 / deadzone=21,11 / fast_pskip=1 / chroma_qp_offset=-3 / threads=12 / lookahead_threads=3 / sliced_threads=0 / nr=0 / decimate=0 / interlaced=0 / bluray_compat=0 / constrained_intra=0 / bframes=16 / b_pyramid=2 / b_adapt=2 / b_bias=0 / direct=3 / weightb=1 / open_gop=0 / weightp=2 / keyint=192 / keyint_min=19 / scenecut=0 / intra_refresh=0 / rc_lookahead=80 / rc=crf / mbtree=1 / crf=17.0 / qcomp=0.60 / qpmin=0 / qpmax=69 / qpstep=4 / vbv_maxrate=4096 / vbv_bufsize=10240 / crf_max=0.0 / nal_hrd=none / filler=0 / ip_ratio=1.40 / aq=3:1.10
    Default                     : Yes
    Forced                      : No
    
    Audio
    ID                          : 2
    Format                      : AAC LC
    Format/Info                 : Advanced Audio Codec Low Complexity
    Codec ID                    : A_AAC-2
    Duration                    : 24 min 11 s
    Bit rate                    : 256 kb/s
    Channel(s)                  : 2 channels
    Channel layout              : L R
    Sampling rate               : 48.0 kHz
    Frame rate                  : 46.875 FPS (1024 SPF)
    Compression mode            : Lossy
    Delay relative to video     : -83 ms
    Stream size                 : 44.3 MiB (10%)
    Default                     : Yes
    Forced                      : No
    Code:
    Complete name               : Food.Wars!.The.Third.Plate.E01.GerDub.1080p.WebHD.x264-Fuuko.mkv
    Format                      : Matroska
    Format version              : Version 4
    File size                   : 677 MiB
    Duration                    : 24 min 11 s
    Overall bit rate            : 3 915 kb/s
    Encoded date                : UTC 2019-06-18 17:08:48
    Writing application         : mkvmerge v10.0.0 ('To Drown In You') 64bit
    Writing library             : libebml v1.3.4 + libmatroska v1.4.5
    
    Video
    ID                          : 1
    Format                      : AVC
    Format/Info                 : Advanced Video Codec
    Format profile              : High@L5
    Format settings             : CABAC / 12 Ref Frames
    Format settings, CABAC      : Yes
    Format settings, ReFrames   : 12 frames
    Codec ID                    : V_MPEG4/ISO/AVC
    Duration                    : 24 min 11 s
    Bit rate                    : 3 656 kb/s
    Width                       : 1 920 pixels
    Height                      : 1 080 pixels
    Display aspect ratio        : 16:9
    Frame rate mode             : Constant
    Frame rate                  : 23.976 (24000/1001) FPS
    Color space                 : YUV
    Chroma subsampling          : 4:2:0
    Bit depth                   : 8 bits
    Scan type                   : Progressive
    Bits/(Pixel*Frame)          : 0.074
    Stream size                 : 632 MiB (93%)
    Writing library             : x264 core 157 r2969 d4099dd
    Encoding settings           : cabac=1 / ref=12 / deblock=1:0:-1 / analyse=0x3:0x133 / me=umh / subme=10 / psy=1 / psy_rd=0.60:0.10 / mixed_ref=1 / me_range=24 / chroma_me=1 / trellis=2 / 8x8dct=1 / cqm=0 / deadzone=21,11 / fast_pskip=1 / chroma_qp_offset=-3 / threads=24 / lookahead_threads=6 / sliced_threads=0 / nr=0 / decimate=0 / interlaced=0 / bluray_compat=0 / constrained_intra=0 / bframes=16 / b_pyramid=2 / b_adapt=2 / b_bias=0 / direct=3 / weightb=1 / open_gop=0 / weightp=2 / keyint=192 / keyint_min=19 / scenecut=0 / intra_refresh=0 / rc_lookahead=80 / rc=crf / mbtree=1 / crf=18.0 / qcomp=0.60 / qpmin=0 / qpmax=69 / qpstep=4 / vbv_maxrate=6144 / vbv_bufsize=15360 / crf_max=0.0 / nal_hrd=none / filler=0 / ip_ratio=1.40 / aq=3:1.10
    Default                     : Yes
    Forced                      : No
    
    Audio
    ID                          : 2
    Format                      : AAC LC
    Format/Info                 : Advanced Audio Codec Low Complexity
    Codec ID                    : A_AAC-2
    Duration                    : 24 min 11 s
    Bit rate                    : 256 kb/s
    Channel(s)                  : 2 channels
    Channel layout              : L R
    Sampling rate               : 48.0 kHz
    Frame rate                  : 46.875 FPS (1024 SPF)
    Compression mode            : Lossy
    Delay relative to video     : -83 ms
    Stream size                 : 44.3 MiB (7%)
    Default                     : Yes
    Forced                      : No
    Code:
    Complete name               : Food.Wars!.The.Third.Plate.E01.GerDub.1080p.Plus.WebHD.x264-Fuuko.mkv
    Format                      : Matroska
    Format version              : Version 4
    File size                   : 1.52 GiB
    Duration                    : 24 min 11 s
    Overall bit rate            : 8 979 kb/s
    Encoded date                : UTC 2019-06-18 17:07:30
    Writing application         : mkvmerge v10.0.0 ('To Drown In You') 64bit
    Writing library             : libebml v1.3.4 + libmatroska v1.4.5
    
    Video
    ID                          : 1
    Format                      : AVC
    Format/Info                 : Advanced Video Codec
    Format profile              : High@L5
    Format settings             : CABAC / 12 Ref Frames
    Format settings, CABAC      : Yes
    Format settings, ReFrames   : 12 frames
    Codec ID                    : V_MPEG4/ISO/AVC
    Duration                    : 24 min 11 s
    Bit rate                    : 8 720 kb/s
    Width                       : 1 920 pixels
    Height                      : 1 080 pixels
    Display aspect ratio        : 16:9
    Frame rate mode             : Constant
    Frame rate                  : 23.976 (24000/1001) FPS
    Color space                 : YUV
    Chroma subsampling          : 4:2:0
    Bit depth                   : 8 bits
    Scan type                   : Progressive
    Bits/(Pixel*Frame)          : 0.175
    Stream size                 : 1.47 GiB (97%)
    Writing library             : x264 core 157 r2969 d4099dd
    Encoding settings           : cabac=1 / ref=12 / deblock=1:0:-1 / analyse=0x3:0x133 / me=umh / subme=10 / psy=1 / psy_rd=0.70:0.15 / mixed_ref=1 / me_range=24 / chroma_me=1 / trellis=2 / 8x8dct=1 / cqm=0 / deadzone=21,11 / fast_pskip=1 / chroma_qp_offset=-3 / threads=24 / lookahead_threads=6 / sliced_threads=0 / nr=0 / decimate=0 / interlaced=0 / bluray_compat=0 / constrained_intra=0 / bframes=16 / b_pyramid=2 / b_adapt=2 / b_bias=0 / direct=3 / weightb=1 / open_gop=0 / weightp=2 / keyint=192 / keyint_min=19 / scenecut=0 / intra_refresh=0 / rc_lookahead=80 / rc=crf / mbtree=1 / crf=15.0 / qcomp=0.60 / qpmin=0 / qpmax=69 / qpstep=4 / vbv_maxrate=20480 / vbv_bufsize=40960 / crf_max=0.0 / nal_hrd=none / filler=0 / ip_ratio=1.40 / aq=3:1.10
    Default                     : Yes
    Forced                      : No
    
    Audio
    ID                          : 2
    Format                      : AAC LC
    Format/Info                 : Advanced Audio Codec Low Complexity
    Codec ID                    : A_AAC-2
    Duration                    : 24 min 11 s
    Bit rate                    : 256 kb/s
    Channel(s)                  : 2 channels
    Channel layout              : L R
    Sampling rate               : 48.0 kHz
    Frame rate                  : 46.875 FPS (1024 SPF)
    Compression mode            : Lossy
    Delay relative to video     : -83 ms
    Stream size                 : 44.3 MiB (3%)
    Default                     : Yes
    Forced                      : No
    [​IMG]
    480p - AAC [​IMG]
    720p - AAC [​IMG]
    1080p - AAC [​IMG]
    1080p Plus - AAC [​IMG]
    Geschützter Bereich
    Registriere dich oder logge dich ein, um den Inhalt sehen zu können
     
    Zuletzt bearbeitet: 28. Juli 2019
    nicole832, MCRFG, UppParia und 36 anderen gefällt das.
  2. supersonik

    supersonik Stachelkadse Premium

    Registriert seit:
    7. Jan. 2018
    Beiträge:
    137
    Zustimmungen:
    1.449
    Food Wars! The Third Plate
    Shokugeki no Souma: San no Sara
    食戟のソーマ 参ノ皿
    [​IMG]

    Beschreibung:
    Shokugeki no Souma geht in die dritte Runde und nach dem Stagiaire hat Souma ein klares Ziel vor Augen: den höchsten Rang – den ersten Sitz – der „Elite 10“ für sich zu beanspruchen! Ein erstes Aufeinandertreffen zwischen unseren Jungköchen und dieser elitären Gruppe lässt auch nicht lang auf sich warten, denn nach Tootsuki-Tradition folgt nach dem Stagiaire das Autumn Leaf Viewing. Dieses traditionsreiche Ereignis, zu welchem nur die Finalisten der Autumn Election zugelassen sind, stellt sich allerdings schnell als alles andere als ein gemütliches Beisammensein heraus …
    Souma lässt sich davon jedoch nicht unterkriegen und verfolgt seinen Traum. Bis er seine Chance bekommt, warten jedoch noch einige Herausforderungen auf ihn und seine Freunde. Und auch Erina gibt sich nicht kampflos geschlagen.
    by anisearch.de

    Folgen: 7/12
    Größe pro Folge: ~420 MB | ~1,50 GB
    Releaser: snk
    Art: Lizenzrelease
    Sprache: Deutsch
    Untertitel: nur forced subs (Hard)
    Jahr: 2017
    Genres: Ganbatte, Ecchi, Harem, Komödie, Romanze
    Auflösung: 1280x720 | 1920x1080
    Format: MKV
    Quelle: WebRip
    Videocodec: x264
    Farbtiefe: 8bit
    Audiocodec: AAC
    Publisher: Anime on Demand | Kazé
    Hoster: Share-Online | Uploaded


    Mediainfo:

    Code:
    Allgemein
    UniqueID/String                          : 202854728187612223829978303096564443500 (0x989C66481A6302403BD701520197696C)
    Vollständiger Name                       : Food.Wars!.The.Third.Plate.2017.Ep01.[GerDub].Web.720p.AAC-snk\Food.Wars!.The.Third.Plate.2017.Ep01.[GerDub].Web.720p.AAC-snk.mkv
    Format                                   : Matroska
    Format-Version                           : Version 4
    Dateigröße                               : 424 MiB
    Dauer                                    : 24 min 11s
    Gesamte Bitrate                          : 2 450 kb/s
    Kodierungs-Datum                         : UTC 2019-06-19 12:15:10
    Kodierendes Programm                     : mkvmerge v31.0.0 ('Dolores In A Shoestand') 64-bit
    verwendete Encoder-Bibliothek            : libebml v1.3.6 + libmatroska v1.4.9
    
    Video
    ID                                       : 1
    Format                                   : AVC
    Format/Info                              : Advanced Video Codec
    Format-Profil                            : High@L4
    Format-Einstellungen                     : CABAC / 9 Ref Frames
    Format-Einstellungen für CABAC           : Ja
    Format-Einstellungen für RefFrames       : 9 frames
    Codec-ID                                 : V_MPEG4/ISO/AVC
    Dauer                                    : 24 min 11s
    Bitrate                                  : 2 191 kb/s
    Breite                                   : 1 280 Pixel
    Höhe                                     : 720 Pixel
    Bildseitenverhältnis                     : 16:9
    Modus der Bildwiederholungsrate          : konstant
    Bildwiederholungsrate                    : 23,976 (24000/1001) FPS
    ColorSpace                               : YUV
    ChromaSubsampling/String                 : 4:2:0
    BitDepth/String                          : 8 bits
    Scantyp                                  : progressiv
    Bits/(Pixel*Frame)                       : 0.099
    Stream-Größe                             : 379 MiB (89%)
    verwendete Encoder-Bibliothek            : x264 core 157 r2969 d4099dd
    Kodierungseinstellungen                  : cabac=1 / ref=9 / deblock=1:0:-1 / analyse=0x3:0x133 / me=umh / subme=10 / psy=1 / psy_rd=0.60:0.10 / mixed_ref=1 / me_range=24 / chroma_me=1 / trellis=2 / 8x8dct=1 / cqm=0 / deadzone=21,11 / fast_pskip=1 / chroma_qp_offset=-3 / threads=12 / lookahead_threads=3 / sliced_threads=0 / nr=0 / decimate=0 / interlaced=0 / bluray_compat=0 / constrained_intra=0 / bframes=16 / b_pyramid=2 / b_adapt=2 / b_bias=0 / direct=3 / weightb=1 / open_gop=0 / weightp=2 / keyint=192 / keyint_min=19 / scenecut=0 / intra_refresh=0 / rc_lookahead=80 / rc=crf / mbtree=1 / crf=17.0 / qcomp=0.60 / qpmin=0 / qpmax=69 / qpstep=4 / vbv_maxrate=4096 / vbv_bufsize=10240 / crf_max=0.0 / nal_hrd=none / filler=0 / ip_ratio=1.40 / aq=3:1.10
    Default                                  : Ja
    Forced                                   : Nein
    
    Audio
    ID                                       : 2
    Format                                   : AAC LC
    Format/Info                              : Advanced Audio Codec Low Complexity
    Codec-ID                                 : A_AAC-2
    Dauer                                    : 24 min 11s
    Bitrate                                  : 256 kb/s
    Kanäle                                   : 2 Kanäle
    ChannelLayout                            : L R
    Samplingrate                             : 48,0 kHz
    Bildwiederholungsrate                    : 46,875 FPS (1024 SPF)
    Stream-Größe                             : 44,3 MiB (10%)
    Sprache                                  : Deutsch
    Default                                  : Ja
    Forced                                   : Nein
    


    Code:
    Allgemein
    UniqueID/String                          : 148088341356166028632223021610741177392 (0x6F68C6F03D0B46D171E5C2A30BD69C30)
    Vollständiger Name                       : Food.Wars!.The.Third.Plate.2017.Ep01.[GerDub].Web.1080pPlus.AAC-snk\Food.Wars!.The.Third.Plate.2017.Ep01.[GerDub].Web.1080pPlus.AAC-snk.mkv
    Format                                   : Matroska
    Format-Version                           : Version 4
    Dateigröße                               : 1,52 GiB
    Dauer                                    : 24 min 11s
    Gesamte Bitrate                          : 8 978 kb/s
    Kodierungs-Datum                         : UTC 2019-06-18 16:10:41
    Kodierendes Programm                     : mkvmerge v34.0.0 ('Sight and Seen') 64-bit
    verwendete Encoder-Bibliothek            : libebml v1.3.7 + libmatroska v1.5.0
    
    Video
    ID                                       : 1
    Format                                   : AVC
    Format/Info                              : Advanced Video Codec
    Format-Profil                            : High@L5
    Format-Einstellungen                     : CABAC / 12 Ref Frames
    Format-Einstellungen für CABAC           : Ja
    Format-Einstellungen für RefFrames       : 12 frames
    Codec-ID                                 : V_MPEG4/ISO/AVC
    Dauer                                    : 24 min 11s
    Bitrate                                  : 8 720 kb/s
    Breite                                   : 1 920 Pixel
    Höhe                                     : 1 080 Pixel
    Bildseitenverhältnis                     : 16:9
    Modus der Bildwiederholungsrate          : konstant
    Bildwiederholungsrate                    : 23,976 (24000/1001) FPS
    ColorSpace                               : YUV
    ChromaSubsampling/String                 : 4:2:0
    BitDepth/String                          : 8 bits
    Scantyp                                  : progressiv
    Bits/(Pixel*Frame)                       : 0.175
    Stream-Größe                             : 1,47 GiB (97%)
    verwendete Encoder-Bibliothek            : x264 core 157 r2969 d4099dd
    Kodierungseinstellungen                  : cabac=1 / ref=12 / deblock=1:0:-1 / analyse=0x3:0x133 / me=umh / subme=10 / psy=1 / psy_rd=0.70:0.15 / mixed_ref=1 / me_range=24 / chroma_me=1 / trellis=2 / 8x8dct=1 / cqm=0 / deadzone=21,11 / fast_pskip=1 / chroma_qp_offset=-3 / threads=24 / lookahead_threads=6 / sliced_threads=0 / nr=0 / decimate=0 / interlaced=0 / bluray_compat=0 / constrained_intra=0 / bframes=16 / b_pyramid=2 / b_adapt=2 / b_bias=0 / direct=3 / weightb=1 / open_gop=0 / weightp=2 / keyint=192 / keyint_min=19 / scenecut=0 / intra_refresh=0 / rc_lookahead=80 / rc=crf / mbtree=1 / crf=15.0 / qcomp=0.60 / qpmin=0 / qpmax=69 / qpstep=4 / vbv_maxrate=20480 / vbv_bufsize=40960 / crf_max=0.0 / nal_hrd=none / filler=0 / ip_ratio=1.40 / aq=3:1.10
    Default                                  : Ja
    Forced                                   : Nein
    
    Audio
    ID                                       : 2
    Format                                   : AAC LC
    Format/Info                              : Advanced Audio Codec Low Complexity
    Codec-ID                                 : A_AAC-2
    Dauer                                    : 24 min 11s
    Bitrate                                  : 256 kb/s
    Kanäle                                   : 2 Kanäle
    ChannelLayout                            : L R
    Samplingrate                             : 48,0 kHz
    Bildwiederholungsrate                    : 46,875 FPS (1024 SPF)
    Stream-Größe                             : 44,3 MiB (3%)
    Sprache                                  : Deutsch
    Default                                  : Ja
    Forced                                   : Nein
    



    720P: [​IMG]
    1080P Plus: [​IMG]
    Geschützter Bereich
    Registriere dich oder logge dich ein, um den Inhalt sehen zu können

     
    Zuletzt bearbeitet: 14. Aug. 2019 um 01:47 Uhr
    nicole832, shionchan, Raziel und 27 anderen gefällt das.
  3. supersonik

    supersonik Stachelkadse Premium

    Registriert seit:
    7. Jan. 2018
    Beiträge:
    137
    Zustimmungen:
    1.449
    Episode 7 Online
    Viel Spaß :)
     
    nicole832 und HoDeluxe gefällt das.