1. Die erweiterte Suche funktioniert wieder. Die LiveSearch ist vorübergehend deaktiviert

Wir verwenden Cookies, um deinen Aufenthalt auf Animes.so möglichst angenehm gestalten zu können. Mehr erfahren

Shomin Sample [Laufend][Ger-Dub][480p|720p|1080p|1080p Plus][WebRip] - AoD

Dieses Thema im Forum "Serien (GerDub)" wurde erstellt von Fuuko, 29. Jan. 2019.

  1. Fuuko

    Fuuko Kleiner Experte Otaku Experte

    Registriert seit:
    19. Sep. 2018
    Beiträge:
    77
    Zustimmungen:
    1.884
    Ore ga Ojou-sama Gakkou ni "Shomin Sample" Toshite Gets-sareta Ken
    Shomin Sample


    [​IMG]

    [​IMG]
    In einer versteckten Schule, umgeben von Bergen, wird jungen Damen aus guter Familie alles gelehrt, was eine "High Class Lady" wissen muss. Sie sind völlig von der Außenwelt abgeschnitten, beschützt und unschuldig. Allerdings bringt dies auch ein großes Problem mit sich: Mehr und mehr Absolventinnen kommen nicht mit der modernen Welt klar, nachdem sie mit ihrem Studium fertig sind. Um dieses Problem zu lösen, hat die Schulleitung beschlossen, einen zufällig ausgewählten männlichen Schüler zu entführen und ihn als Student in ihrer Schule anzumelden. Sie hoffen, dass dies eine sanfte Art und Weise ist, um die Mädchen auf die Außenwelt vorzubereiten.
    [​IMG]
    Episoden: 07 / 12
    Spieldauer: 24 Min.
    Source: WebRip
    Format: MKV
    Video-Codec: x264
    Audio-Codec: AAC
    Sprache: Deutsch
    Untertitel: Überschriften
    Publisher: Anime On Demand
    Auflösung: 480p | 720p | 1080p | 1080p Plus
    Größe: 150 MB | 300 MB | 500 MB | 1200 MB
    Code:
    Complete name               : Shomin.Sample.E01.GerDub.480p.WebRip.x264-Fuuko.mkv
    Format                      : Matroska
    Format version              : Version 4
    File size                   : 134 MiB
    Duration                    : 23 min 40 s
    Overall bit rate            : 793 kb/s
    Encoded date                : UTC 2019-01-29 16:23:04
    Writing application         : mkvmerge v10.0.0 ('To Drown In You') 64bit
    Writing library             : libebml v1.3.4 + libmatroska v1.4.5
    
    Video
    ID                          : 1
    Format                      : AVC
    Format/Info                 : Advanced Video Codec
    Format profile              : Main@L4
    Format settings             : CABAC / 6 Ref Frames
    Format settings, CABAC      : Yes
    Format settings, ReFrames   : 6 frames
    Codec ID                    : V_MPEG4/ISO/AVC
    Duration                    : 23 min 40 s
    Bit rate                    : 598 kb/s
    Width                       : 856 pixels
    Height                      : 480 pixels
    Display aspect ratio        : 16:9
    Frame rate mode             : Constant
    Frame rate                  : 23.976 (24000/1001) FPS
    Color space                 : YUV
    Chroma subsampling          : 4:2:0
    Bit depth                   : 8 bits
    Scan type                   : Progressive
    Bits/(Pixel*Frame)          : 0.061
    Stream size                 : 101 MiB (75%)
    Writing library             : x264 core 157 r2935 545de2f
    Encoding settings           : cabac=1 / ref=6 / deblock=1:1:1 / analyse=0x1:0x111 / me=umh / subme=8 / psy=1 / psy_rd=0.50:0.05 / mixed_ref=1 / me_range=20 / chroma_me=1 / trellis=2 / 8x8dct=0 / cqm=0 / deadzone=21,11 / fast_pskip=1 / chroma_qp_offset=-3 / threads=12 / lookahead_threads=3 / sliced_threads=0 / nr=0 / decimate=0 / interlaced=0 / bluray_compat=0 / constrained_intra=0 / bframes=6 / b_pyramid=2 / b_adapt=2 / b_bias=0 / direct=3 / weightb=1 / open_gop=0 / weightp=2 / keyint=192 / keyint_min=19 / scenecut=0 / intra_refresh=0 / rc_lookahead=80 / rc=crf / mbtree=1 / crf=19.0 / qcomp=0.60 / qpmin=0 / qpmax=69 / qpstep=4 / vbv_maxrate=1024 / vbv_bufsize=2560 / crf_max=0.0 / nal_hrd=none / filler=0 / ip_ratio=1.40 / aq=3:0.80
    Default                     : Yes
    Forced                      : No
    
    Audio
    ID                          : 2
    Format                      : AAC LC
    Format/Info                 : Advanced Audio Codec Low Complexity
    Codec ID                    : A_AAC-2
    Duration                    : 23 min 40 s
    Bit rate                    : 192 kb/s
    Channel(s)                  : 2 channels
    Channel layout              : L R
    Sampling rate               : 48.0 kHz
    Frame rate                  : 46.875 FPS (1024 SPF)
    Compression mode            : Lossy
    Delay relative to video     : -83 ms
    Stream size                 : 32.5 MiB (24%)
    Default                     : Yes
    Forced                      : No
    Code:
    Complete name               : Shomin.Sample.E01.GerDub.720p.WebHD.x264-Fuuko.mkv
    Format                      : Matroska
    Format version              : Version 4
    File size                   : 314 MiB
    Duration                    : 23 min 40 s
    Overall bit rate            : 1 854 kb/s
    Encoded date                : UTC 2019-01-29 16:23:09
    Writing application         : mkvmerge v10.0.0 ('To Drown In You') 64bit
    Writing library             : libebml v1.3.4 + libmatroska v1.4.5
    
    Video
    ID                          : 1
    Format                      : AVC
    Format/Info                 : Advanced Video Codec
    Format profile              : High@L4
    Format settings             : CABAC / 9 Ref Frames
    Format settings, CABAC      : Yes
    Format settings, ReFrames   : 9 frames
    Codec ID                    : V_MPEG4/ISO/AVC
    Duration                    : 23 min 40 s
    Bit rate                    : 1 595 kb/s
    Width                       : 1 280 pixels
    Height                      : 720 pixels
    Display aspect ratio        : 16:9
    Frame rate mode             : Constant
    Frame rate                  : 23.976 (24000/1001) FPS
    Color space                 : YUV
    Chroma subsampling          : 4:2:0
    Bit depth                   : 8 bits
    Scan type                   : Progressive
    Bits/(Pixel*Frame)          : 0.072
    Stream size                 : 270 MiB (86%)
    Writing library             : x264 core 157 r2935 545de2f
    Encoding settings           : cabac=1 / ref=9 / deblock=1:0:-1 / analyse=0x3:0x133 / me=umh / subme=10 / psy=1 / psy_rd=0.60:0.10 / mixed_ref=1 / me_range=24 / chroma_me=1 / trellis=2 / 8x8dct=1 / cqm=0 / deadzone=21,11 / fast_pskip=1 / chroma_qp_offset=-3 / threads=12 / lookahead_threads=3 / sliced_threads=0 / nr=0 / decimate=0 / interlaced=0 / bluray_compat=0 / constrained_intra=0 / bframes=16 / b_pyramid=2 / b_adapt=2 / b_bias=0 / direct=3 / weightb=1 / open_gop=0 / weightp=2 / keyint=192 / keyint_min=19 / scenecut=0 / intra_refresh=0 / rc_lookahead=80 / rc=crf / mbtree=1 / crf=17.0 / qcomp=0.60 / qpmin=0 / qpmax=69 / qpstep=4 / vbv_maxrate=4096 / vbv_bufsize=10240 / crf_max=0.0 / nal_hrd=none / filler=0 / ip_ratio=1.40 / aq=3:1.10
    Default                     : Yes
    Forced                      : No
    
    Audio
    ID                          : 2
    Format                      : AAC LC
    Format/Info                 : Advanced Audio Codec Low Complexity
    Codec ID                    : A_AAC-2
    Duration                    : 23 min 40 s
    Bit rate                    : 256 kb/s
    Channel(s)                  : 2 channels
    Channel layout              : L R
    Sampling rate               : 48.0 kHz
    Frame rate                  : 46.875 FPS (1024 SPF)
    Compression mode            : Lossy
    Delay relative to video     : -83 ms
    Stream size                 : 43.3 MiB (14%)
    Default                     : Yes
    Forced                      : No
    Code:
    Complete name               : Shomin.Sample.E01.GerDub.1080p.WebHD.x264-Fuuko.mkv
    Format                      : Matroska
    Format version              : Version 4
    File size                   : 495 MiB
    Duration                    : 23 min 40 s
    Overall bit rate            : 2 925 kb/s
    Encoded date                : UTC 2019-01-29 16:23:22
    Writing application         : mkvmerge v10.0.0 ('To Drown In You') 64bit
    Writing library             : libebml v1.3.4 + libmatroska v1.4.5
    
    Video
    ID                          : 1
    Format                      : AVC
    Format/Info                 : Advanced Video Codec
    Format profile              : High@L5
    Format settings             : CABAC / 12 Ref Frames
    Format settings, CABAC      : Yes
    Format settings, ReFrames   : 12 frames
    Codec ID                    : V_MPEG4/ISO/AVC
    Duration                    : 23 min 40 s
    Bit rate                    : 2 667 kb/s
    Width                       : 1 920 pixels
    Height                      : 1 080 pixels
    Display aspect ratio        : 16:9
    Frame rate mode             : Constant
    Frame rate                  : 23.976 (24000/1001) FPS
    Color space                 : YUV
    Chroma subsampling          : 4:2:0
    Bit depth                   : 8 bits
    Scan type                   : Progressive
    Bits/(Pixel*Frame)          : 0.054
    Stream size                 : 451 MiB (91%)
    Writing library             : x264 core 157 r2935 545de2f
    Encoding settings           : cabac=1 / ref=12 / deblock=1:0:-1 / analyse=0x3:0x133 / me=umh / subme=10 / psy=1 / psy_rd=0.60:0.10 / mixed_ref=1 / me_range=24 / chroma_me=1 / trellis=2 / 8x8dct=1 / cqm=0 / deadzone=21,11 / fast_pskip=1 / chroma_qp_offset=-3 / threads=24 / lookahead_threads=6 / sliced_threads=0 / nr=0 / decimate=0 / interlaced=0 / bluray_compat=0 / constrained_intra=0 / bframes=16 / b_pyramid=2 / b_adapt=2 / b_bias=0 / direct=3 / weightb=1 / open_gop=0 / weightp=2 / keyint=192 / keyint_min=19 / scenecut=0 / intra_refresh=0 / rc_lookahead=80 / rc=crf / mbtree=1 / crf=18.0 / qcomp=0.60 / qpmin=0 / qpmax=69 / qpstep=4 / vbv_maxrate=6144 / vbv_bufsize=15360 / crf_max=0.0 / nal_hrd=none / filler=0 / ip_ratio=1.40 / aq=3:1.10
    Default                     : Yes
    Forced                      : No
    
    Audio
    ID                          : 2
    Format                      : AAC LC
    Format/Info                 : Advanced Audio Codec Low Complexity
    Codec ID                    : A_AAC-2
    Duration                    : 23 min 40 s
    Bit rate                    : 256 kb/s
    Channel(s)                  : 2 channels
    Channel layout              : L R
    Sampling rate               : 48.0 kHz
    Frame rate                  : 46.875 FPS (1024 SPF)
    Compression mode            : Lossy
    Delay relative to video     : -83 ms
    Stream size                 : 43.3 MiB (9%)
    Default                     : Yes
    Forced                      : No
    Code:
    Complete name               : Shomin.Sample.E01.GerDub.1080p.Plus.WebHD.x264-Fuuko.mkv
    Format                      : Matroska
    Format version              : Version 4
    File size                   : 1.14 GiB
    Duration                    : 23 min 40 s
    Overall bit rate            : 6 870 kb/s
    Encoded date                : UTC 2019-01-29 16:23:13
    Writing application         : mkvmerge v10.0.0 ('To Drown In You') 64bit
    Writing library             : libebml v1.3.4 + libmatroska v1.4.5
    
    Video
    ID                          : 1
    Format                      : AVC
    Format/Info                 : Advanced Video Codec
    Format profile              : High@L5
    Format settings             : CABAC / 12 Ref Frames
    Format settings, CABAC      : Yes
    Format settings, ReFrames   : 12 frames
    Codec ID                    : V_MPEG4/ISO/AVC
    Duration                    : 23 min 40 s
    Bit rate                    : 6 612 kb/s
    Width                       : 1 920 pixels
    Height                      : 1 080 pixels
    Display aspect ratio        : 16:9
    Frame rate mode             : Constant
    Frame rate                  : 23.976 (24000/1001) FPS
    Color space                 : YUV
    Chroma subsampling          : 4:2:0
    Bit depth                   : 8 bits
    Scan type                   : Progressive
    Bits/(Pixel*Frame)          : 0.133
    Stream size                 : 1.09 GiB (96%)
    Writing library             : x264 core 157 r2935 545de2f
    Encoding settings           : cabac=1 / ref=12 / deblock=1:0:-1 / analyse=0x3:0x133 / me=umh / subme=10 / psy=1 / psy_rd=0.70:0.15 / mixed_ref=1 / me_range=24 / chroma_me=1 / trellis=2 / 8x8dct=1 / cqm=0 / deadzone=21,11 / fast_pskip=1 / chroma_qp_offset=-3 / threads=24 / lookahead_threads=6 / sliced_threads=0 / nr=0 / decimate=0 / interlaced=0 / bluray_compat=0 / constrained_intra=0 / bframes=16 / b_pyramid=2 / b_adapt=2 / b_bias=0 / direct=3 / weightb=1 / open_gop=0 / weightp=2 / keyint=192 / keyint_min=19 / scenecut=0 / intra_refresh=0 / rc_lookahead=80 / rc=crf / mbtree=1 / crf=15.0 / qcomp=0.60 / qpmin=0 / qpmax=69 / qpstep=4 / vbv_maxrate=20480 / vbv_bufsize=40960 / crf_max=0.0 / nal_hrd=none / filler=0 / ip_ratio=1.40 / aq=3:1.10
    Default                     : Yes
    Forced                      : No
    
    Audio
    ID                          : 2
    Format                      : AAC LC
    Format/Info                 : Advanced Audio Codec Low Complexity
    Codec ID                    : A_AAC-2
    Duration                    : 23 min 40 s
    Bit rate                    : 256 kb/s
    Channel(s)                  : 2 channels
    Channel layout              : L R
    Sampling rate               : 48.0 kHz
    Frame rate                  : 46.875 FPS (1024 SPF)
    Compression mode            : Lossy
    Delay relative to video     : -83 ms
    Stream size                 : 43.3 MiB (4%)
    Default                     : Yes
    Forced                      : No
    [​IMG]
    480p [​IMG]
    720p [​IMG]
    1080p [​IMG]
    1080p Plus [​IMG]

    Geschützter Bereich
    Registriere dich oder logge dich ein, um den Inhalt sehen zu können
     
    Zuletzt bearbeitet: 3. Apr. 2019
    Seralin, Fireball207, Ibanezar und 41 anderen gefällt das.
  2. Fuuko

    Fuuko Kleiner Experte Otaku Experte

    Registriert seit:
    19. Sep. 2018
    Beiträge:
    77
    Zustimmungen:
    1.884
    ~ Episode 7 - Ganz in ihrem Element ~
     
    vgws gefällt das.