Wir verwenden Cookies, um deinen Aufenthalt auf Animes.so möglichst angenehm gestalten zu können. Mehr erfahren

Sky Girls (2007) + OVA [Jap-Dub][Ger-Sub]400p][DVDRip] - GK

Dieses Thema im Forum "Anime Serien (Deutsche Untertitel)" wurde erstellt von Sagiri-chan, 30. Dez. 2015.

  1. Sagiri-chan
    Sagiri-chan

    Offizieller Bot von Animes.so

    Registriert seit:
    9. Aug. 2017
    Beiträge:
    3.138
    Zustimmungen:
    4.636

    Sky Girls (2007)
    スカイガールズ (2007)
    Sky Girls TV



    [​IMG]


    Kurzbeschreibung:


    Spieldauer: 25min
    Genre: Actionkomödie
    Nebengenres: Action, Ecchi, Komödie, Mecha, Männlich, Sci-Fi
    Jahr: 2007
    Sprache: [​IMG]Japanisch
    Untertitel: [​IMG]Deutsch
    Größe pro Folge: ~172 MiB
    Episodenanzahl: 26/26 + 1/1
    Format: MKV
    Auflösung: 400p (16:9)
    Videocodec: x264 (AVC)
    Audiocodec: MPEG Audio
    Releasegruppe: GK
    Hoster: [​IMG]Share-Online, [​IMG]Uploaded


    Code:
    
    Format                                   : Matroska
    Format version                           : Version 1
    File size                                : 172 MiB
    Duration                                 : 24mn 25s
    Overall bit rate                         : 984 Kbps
    Encoded date                             : UTC 2008-03-03 20:24:12
    Writing application                      : mkvmerge v2.0.2 ('You're My Flame') built on Feb 21 2007 23:40:55
    Writing library                          : libebml v0.7.7 + libmatroska v0.8.1
    
    Video
    ID                                       : 1
    Format                                   : AVC
    Format/Info                              : Advanced Video Codec
    Format profile                           : High@L5.1
    Format settings, CABAC                   : Yes
    Format settings, ReFrames                : 3 frames
    Codec ID                                 : V_MPEG4/ISO/AVC
    Duration                                 : 24mn 25s
    Bit rate                                 : 852 Kbps
    Width                                    : 704 pixels
    Height                                   : 400 pixels
    Display aspect ratio                     : 16:9
    Frame rate mode                          : Constant
    Frame rate                               : 23.976 fps
    Color space                              : YUV
    Chroma subsampling                       : 4:2:0
    Bit depth                                : 8 bits
    Scan type                                : Progressive
    Bits/(Pixel*Frame)                       : 0.126
    Stream size                              : 146 MiB (85%)
    Writing library                          : x264 core 58 svn-736M
    Encoding settings                        : cabac=1 / ref=3 / deblock=1:1:-1 / analyse=0x1:0 / me=umh / subme=6 / me-prepass=0 / brdo=1 / mixed_ref=1 / me_range=16 / chroma_me=1 / trellis=2 / 8x8dct=0 / cqm=1 / deadzone=21,11 / chroma_qp_offset=0 / threads=1 / nr=0 / decimate=1 / mbaff=0 / bframes=6 / b_pyramid=1 / b_adapt=1 / b_bias=0 / direct=3 / wpredb=1 / bime=1 / keyint=600 / keyint_min=25 / scenecut=40 / rc=2pass / bitrate=852 / ratetol=1.0 / rceq='blurCplx^(1-qComp)' / qcomp=1.00 / qpmin=10 / qpmax=51 / qpstep=4 / cplxblur=20.0 / qblur=0.5 / ip_ratio=1.40 / pb_ratio=1.30 / aq=1:0.5:13.0
    Default                                  : Yes
    Forced                                   : No
    
    Audio
    ID                                       : 2
    Format                                   : MPEG Audio
    Format version                           : Version 1
    Format profile                           : Layer 3
    Mode                                     : Joint stereo
    Mode extension                           : MS Stereo
    Codec ID                                 : A_MPEG/L3
    Codec ID/Hint                            : MP3
    Duration                                 : 24mn 25s
    Bit rate mode                            : Constant
    Bit rate                                 : 128 Kbps
    Channel(s)                               : 2 channels
    Sampling rate                            : 48.0 KHz
    Compression mode                         : Lossy
    Stream size                              : 22.4 MiB (13%)
    Writing library                          : LAME3.98a
    Encoding settings                        : -m j -V 4 -q 2 -lowpass 17 -b 128
    Language                                 : Japanese
    Default                                  : Yes
    Forced                                   : No
    
    



    [​IMG]
    Onlinestatus: [​IMG]
    Geschützter Bereich
    Registriere dich oder logge dich ein, um den Inhalt sehen zu können
     
    Lasted edited by : 4. Nov. 2017
    Cyriix, ItsMeee, neron86 und 11 anderen gefällt das.
  2. Sagiri-chan
    Sagiri-chan

    Offizieller Bot von Animes.so

    Registriert seit:
    9. Aug. 2017
    Beiträge:
    3.138
    Zustimmungen:
    4.636

Diese Seite empfehlen