Wir verwenden Cookies, um deinen Aufenthalt auf Animes.so möglichst angenehm gestalten zu können. Mehr erfahren

Special 7: Special Crime Investigation Unit | Keishichou Tokumu Bu Tokushu Kyouakuhan Taisaku Shitsu Dai Nana Ka: Tokunana [Laufend][Jap-Dub][Ger-Sub][720p|1080p][WebRip] - AoD

Dieses Thema im Forum "Anime Serien (Deutsche Untertitel)" wurde erstellt von Azugo, 1. Jan. 2021.

  1. Azugo
    Azugo

    H͓̽u͓̽g͓̽o͓̽ ͓̽&͓̽ ͓̽A͓̽z͓̽u͓̽r͓̽a͓̽ Premium Seelenverkäufer Uploader

    Registriert seit:
    25. März 2020
    Beiträge:
    391
    Zustimmungen:
    2.993

    Special 7: Special Crime Investigation Unit | Keishichou Tokumu Bu Tokushu Kyouakuhan Taisaku Shitsu Dai Nana Ka: Tokunana



    [​IMG]


    [​IMG]

    [​IMG]

    Spieldauer: ~24min
    Genres: Action
    Nebengenres: Fantasy, Mystery
    Jahr: 2019
    Sprache: Japanisch
    Untertitel: Deutsch
    Größe pro Folge: ~312mb, ~1242mb
    Episodenanzahl: 3 / 12
    Format: MKV
    Auflösung: 720p (16:9), 1080p (16:9)
    Videocodec: H264 (AVC)
    Audiocodec: AAC
    Releasegruppe: Hugo
    Hoster: ddownload, uploaded


    [​IMG]
    Code:
    Format                                   : Matroska
    Format version                           : Version 4
    File size                                : 312 MiB
    Duration                                 : 23 min 41 s
    Overall bit rate                         : 1 842 kb/s
    Encoded date                             : UTC 2021-01-01 10:50:37
    Writing application                      : mkvmerge v51.0.0 ('I Wish') 64-bit
    Writing library                          : libebml v1.4.0 + libmatroska v1.6.2
    
    Video
    ID                                       : 1
    Format                                   : AVC
    Format/Info                              : Advanced Video Codec
    Format profile                           : High@L4
    Format settings                          : CABAC / 9 Ref Frames
    Format settings, CABAC                   : Yes
    Format settings, Reference frames        : 9 frames
    Codec ID                                 : V_MPEG4/ISO/AVC
    Duration                                 : 23 min 41 s
    Bit rate                                 : 1 583 kb/s
    Width                                    : 1 280 pixels
    Height                                   : 720 pixels
    Display aspect ratio                     : 16:9
    Frame rate mode                          : Constant
    Frame rate                               : 23.976 (24000/1001) FPS
    Color space                              : YUV
    Chroma subsampling                       : 4:2:0
    Bit depth                                : 8 bits
    Scan type                                : Progressive
    Bits/(Pixel*Frame)                       : 0.072
    Stream size                              : 268 MiB (86%)
    Writing library                          : x264 core 157 r2969 d4099dd
    Encoding settings                        : cabac=1 / ref=9 / deblock=1:0:-1 / analyse=0x3:0x133 / me=umh / subme=10 / psy=1 / psy_rd=0.60:0.10 / mixed_ref=1 / me_range=24 / chroma_me=1 / trellis=2 / 8x8dct=1 / cqm=0 / deadzone=21,11 / fast_pskip=1 / chroma_qp_offset=-3 / threads=12 / lookahead_threads=3 / sliced_threads=0 / nr=0 / decimate=0 / interlaced=0 / bluray_compat=0 / constrained_intra=0 / bframes=16 / b_pyramid=2 / b_adapt=2 / b_bias=0 / direct=3 / weightb=1 / open_gop=0 / weightp=2 / keyint=192 / keyint_min=19 / scenecut=0 / intra_refresh=0 / rc_lookahead=80 / rc=crf / mbtree=1 / crf=17.0 / qcomp=0.60 / qpmin=0 / qpmax=69 / qpstep=4 / vbv_maxrate=4096 / vbv_bufsize=10240 / crf_max=0.0 / nal_hrd=none / filler=0 / ip_ratio=1.40 / aq=3:1.10
    Default                                  : Yes
    Forced                                   : No
    
    Audio
    ID                                       : 2
    Format                                   : AAC LC
    Format/Info                              : Advanced Audio Codec Low Complexity
    Codec ID                                 : A_AAC-2
    Duration                                 : 23 min 41 s
    Bit rate                                 : 256 kb/s
    Channel(s)                               : 2 channels
    Channel layout                           : L R
    Sampling rate                            : 48.0 kHz
    Frame rate                               : 46.875 FPS (1024 SPF)
    Compression mode                         : Lossy
    Delay relative to video                  : -83 ms
    Stream size                              : 43.4 MiB (14%)
    Default                                  : Yes
    Forced                                   : No
    
    
    Code:
    Format                                   : Matroska
    Format version                           : Version 4
    File size                                : 1.24 GiB
    Duration                                 : 23 min 41 s
    Overall bit rate                         : 7 510 kb/s
    Encoded date                             : UTC 2021-01-01 10:50:46
    Writing application                      : mkvmerge v51.0.0 ('I Wish') 64-bit
    Writing library                          : libebml v1.4.0 + libmatroska v1.6.2
    
    Video
    ID                                       : 1
    Format                                   : AVC
    Format/Info                              : Advanced Video Codec
    Format profile                           : High@L5
    Format settings                          : CABAC / 12 Ref Frames
    Format settings, CABAC                   : Yes
    Format settings, Reference frames        : 12 frames
    Codec ID                                 : V_MPEG4/ISO/AVC
    Duration                                 : 23 min 41 s
    Bit rate                                 : 7 252 kb/s
    Width                                    : 1 920 pixels
    Height                                   : 1 080 pixels
    Display aspect ratio                     : 16:9
    Frame rate mode                          : Constant
    Frame rate                               : 23.976 (24000/1001) FPS
    Color space                              : YUV
    Chroma subsampling                       : 4:2:0
    Bit depth                                : 8 bits
    Scan type                                : Progressive
    Bits/(Pixel*Frame)                       : 0.146
    Stream size                              : 1.20 GiB (97%)
    Writing library                          : x264 core 157 r2969 d4099dd
    Encoding settings                        : cabac=1 / ref=12 / deblock=1:0:-1 / analyse=0x3:0x133 / me=umh / subme=10 / psy=1 / psy_rd=0.70:0.15 / mixed_ref=1 / me_range=24 / chroma_me=1 / trellis=2 / 8x8dct=1 / cqm=0 / deadzone=21,11 / fast_pskip=1 / chroma_qp_offset=-3 / threads=24 / lookahead_threads=6 / sliced_threads=0 / nr=0 / decimate=0 / interlaced=0 / bluray_compat=0 / constrained_intra=0 / bframes=16 / b_pyramid=2 / b_adapt=2 / b_bias=0 / direct=3 / weightb=1 / open_gop=0 / weightp=2 / keyint=192 / keyint_min=19 / scenecut=0 / intra_refresh=0 / rc_lookahead=80 / rc=crf / mbtree=1 / crf=15.0 / qcomp=0.60 / qpmin=0 / qpmax=69 / qpstep=4 / vbv_maxrate=20480 / vbv_bufsize=40960 / crf_max=0.0 / nal_hrd=none / filler=0 / ip_ratio=1.40 / aq=3:1.10
    Default                                  : Yes
    Forced                                   : No
    
    Audio
    ID                                       : 2
    Format                                   : AAC LC
    Format/Info                              : Advanced Audio Codec Low Complexity
    Codec ID                                 : A_AAC-2
    Duration                                 : 23 min 41 s
    Bit rate                                 : 256 kb/s
    Channel(s)                               : 2 channels
    Channel layout                           : L R
    Sampling rate                            : 48.0 kHz
    Frame rate                               : 46.875 FPS (1024 SPF)
    Compression mode                         : Lossy
    Delay relative to video                  : -83 ms
    Stream size                              : 43.4 MiB (3%)
    Default                                  : Yes
    Forced                                   : No
    
    




    Status: 720p [​IMG] 1080p [​IMG]
    Geschützter Bereich
    Registriere dich oder logge dich ein, um den Inhalt sehen zu können
     
    Zuletzt bearbeitet: 13. Jan. 2021
  2. supersonik
    supersonik

    Zero Hero Otaku Gott Uploader

    Registriert seit:
    7. Jan. 2018
    Beiträge:
    1.176
    Zustimmungen:
    23.240

    Special 7: Special Crime Investigation Unit
    Keishichou Tokumu Bu Tokushu Kyouakuhan Taisaku Shitsu Dai Nana Ka: Tokunana
    警視庁 特務部 特殊凶悪犯対策室 第七課 -トクナナ-
    [​IMG]

    Beschreibung:
    In dem Original-Anime Keishichou Tokumu Bu Tokushu Kyouakuhan Taisaku Shitsu Dai Nana Ka: Tokunana tauchen wir ein in eine Welt voller Elfen, Zwerge, Vampire, Homunkuli und Menschen. Vor langer, langer Zeit wurde diese Welt noch von den mächtigen Drachen beherrscht, doch mittlerweile sind diese einst so majestätischen Kreaturen fast vollständig verschwunden. Die wenigen Drachen, die in dieser modernen Welt noch existieren, leben nun zusammen und ihr äußeres Erscheinungsbild hat sich dem von Menschen angepasst.

    Tokio im Jahr 2X19: Während die Welt eine Zeit relativen Friedens genießt, rührt sich im Verborgenen eine Gruppe von Unholden, die diesen Frieden zu stören versuchen. Diese Gruppe, die sich als »Nine« bezeichnet hat es sich zur Aufgabe gemacht, die Macht der Drachen zu erlangen – und dabei ist ihnen jedes Mittel recht. Als Reaktion auf das Chaos, das »Nine« verursacht, gründete die Polizei eine Spezialeinheit, die aus den verschiedensten Spezialisten besteht, die sich »Nine« in den Weg stellen sollen: »Special 7«! Diese Spezialisten haben die Grenzen gewöhnlicher Menschen jedoch weit hinter sich gelassen und besitzen Fähigkeiten, die sie so stark vom »Fußvolk« unterscheiden, dass dieses insgeheim schon gegen sie rebelliert. In diese Spezialeinheit tritt auch der junge Seiji Nanatsuki ein, der sich von den Neckereien seiner Kollegen nicht unterkriegen lässt und sich mutig an die Lösung der Fälle rund um »Nine« macht.
    by anisearch.de

    Folgen: 3/12
    Größe pro Folge: ~310 MB | ~1240 MB
    Releaser: Anime BluRay Junkies
    Art: Lizenzrelease
    Sprache: Japanisch
    Untertitel: Deutsch
    Jahr: 2019
    Genres: Action, Polizist, Vampire, Fantasy
    Auflösung: 1280x720 | 1920x1080
    Format: MKV
    Quelle: WebRip
    Videocodec: x264
    Farbtiefe: 8bit
    Audiocodec: AAC
    Publisher: Anima&Company | Anime-on-Demand
    Hoster: DDownload | Uploaded


    Mediainfo:
    Code:
    General Unique ID : 170969381770179878656286191019898519986 (0x809F81544AF5D5C5F0593AAA7AF541B2) Complete name : Special.7.Special.Crime.Investigation.Unit.S01E01.Subbed.AAC.720p.WebRip.x264-ABJ.mkv Format : Matroska Format version : Version 4 File size : 312 MiB Duration : 23 min 41 s Overall bit rate : 1 842 kb/s Encoded date : UTC 2020-12-30 18:23:19 Writing application : mkvmerge v51.0.0 ('I Wish') 64-bit Writing library : libebml v1.4.0 + libmatroska v1.6.2 Video ID : 1 Format : AVC Format/Info : Advanced Video Codec Format profile : High@L4 Format settings : CABAC / 9 Ref Frames Format settings, CABAC : Yes Format settings, Reference frames : 9 frames Codec ID : V_MPEG4/ISO/AVC Duration : 23 min 41 s Bit rate : 1 583 kb/s Width : 1 280 pixels Height : 720 pixels Display aspect ratio : 16:9 Frame rate mode : Constant Frame rate : 23.976 (23976/1000) FPS Original frame rate : 23.976 (24000/1001) FPS Color space : YUV Chroma subsampling : 4:2:0 Bit depth : 8 bits Scan type : Progressive Bits/(Pixel*Frame) : 0.072 Stream size : 268 MiB (86%) Writing library : x264 core 157 r2969 d4099dd Encoding settings : cabac=1 / ref=9 / deblock=1:0:-1 / analyse=0x3:0x133 / me=umh / subme=10 / psy=1 / psy_rd=0.60:0.10 / mixed_ref=1 / me_range=24 / chroma_me=1 / trellis=2 / 8x8dct=1 / cqm=0 / deadzone=21,11 / fast_pskip=1 / chroma_qp_offset=-3 / threads=12 / lookahead_threads=3 / sliced_threads=0 / nr=0 / decimate=0 / interlaced=0 / bluray_compat=0 / constrained_intra=0 / bframes=16 / b_pyramid=2 / b_adapt=2 / b_bias=0 / direct=3 / weightb=1 / open_gop=0 / weightp=2 / keyint=192 / keyint_min=19 / scenecut=0 / intra_refresh=0 / rc_lookahead=80 / rc=crf / mbtree=1 / crf=17.0 / qcomp=0.60 / qpmin=0 / qpmax=69 / qpstep=4 / vbv_maxrate=4096 / vbv_bufsize=10240 / crf_max=0.0 / nal_hrd=none / filler=0 / ip_ratio=1.40 / aq=3:1.10 Default : Yes Forced : No Audio ID : 2 Format : AAC LC Format/Info : Advanced Audio Codec Low Complexity Codec ID : A_AAC-2 Duration : 23 min 41 s Bit rate : 256 kb/s Channel(s) : 2 channels Channel layout : L R Sampling rate : 48.0 kHz Frame rate : 46.875 FPS (1024 SPF) Compression mode : Lossy Stream size : 43.4 MiB (14%) Language : Japanese Default : Yes Forced : No ​
    Code:
    General Unique ID : 263427603610193075730772017411393994805 (0xC62E4F9D8197AC45F7EF612C4B964035) Complete name : Special.7.Special.Crime.Investigation.Unit.S01E01.Subbed.AAC.1080pPlus.WebRip.x264-ABJ.mkv Format : Matroska Format version : Version 4 File size : 1.24 GiB Duration : 23 min 41 s Overall bit rate : 7 510 kb/s Encoded date : UTC 2020-12-30 18:24:34 Writing application : mkvmerge v51.0.0 ('I Wish') 64-bit Writing library : libebml v1.4.0 + libmatroska v1.6.2 Video ID : 1 Format : AVC Format/Info : Advanced Video Codec Format profile : High@L5 Format settings : CABAC / 12 Ref Frames Format settings, CABAC : Yes Format settings, Reference frames : 12 frames Codec ID : V_MPEG4/ISO/AVC Duration : 23 min 41 s Bit rate : 7 252 kb/s Width : 1 920 pixels Height : 1 080 pixels Display aspect ratio : 16:9 Frame rate mode : Constant Frame rate : 23.976 (23976/1000) FPS Original frame rate : 23.976 (24000/1001) FPS Color space : YUV Chroma subsampling : 4:2:0 Bit depth : 8 bits Scan type : Progressive Bits/(Pixel*Frame) : 0.146 Stream size : 1.20 GiB (97%) Writing library : x264 core 157 r2969 d4099dd Encoding settings : cabac=1 / ref=12 / deblock=1:0:-1 / analyse=0x3:0x133 / me=umh / subme=10 / psy=1 / psy_rd=0.70:0.15 / mixed_ref=1 / me_range=24 / chroma_me=1 / trellis=2 / 8x8dct=1 / cqm=0 / deadzone=21,11 / fast_pskip=1 / chroma_qp_offset=-3 / threads=24 / lookahead_threads=6 / sliced_threads=0 / nr=0 / decimate=0 / interlaced=0 / bluray_compat=0 / constrained_intra=0 / bframes=16 / b_pyramid=2 / b_adapt=2 / b_bias=0 / direct=3 / weightb=1 / open_gop=0 / weightp=2 / keyint=192 / keyint_min=19 / scenecut=0 / intra_refresh=0 / rc_lookahead=80 / rc=crf / mbtree=1 / crf=15.0 / qcomp=0.60 / qpmin=0 / qpmax=69 / qpstep=4 / vbv_maxrate=20480 / vbv_bufsize=40960 / crf_max=0.0 / nal_hrd=none / filler=0 / ip_ratio=1.40 / aq=3:1.10 Default : Yes Forced : No Audio ID : 2 Format : AAC LC Format/Info : Advanced Audio Codec Low Complexity Codec ID : A_AAC-2 Duration : 23 min 41 s Bit rate : 256 kb/s Channel(s) : 2 channels Channel layout : L R Sampling rate : 48.0 kHz Frame rate : 46.875 FPS (1024 SPF) Compression mode : Lossy Stream size : 43.4 MiB (3%) Language : Japanese Default : Yes Forced : No ​
    720p: [​IMG]
    1080p: [​IMG]
    Geschützter Bereich
    Registriere dich oder logge dich ein, um den Inhalt sehen zu können
     
    Zuletzt bearbeitet: 15. Jan. 2021 um 19:01 Uhr
    xeltzber, Mr.Shit, Suigetsu und 3 anderen gefällt das.
  3. Azugo
    Azugo

    H͓̽u͓̽g͓̽o͓̽ ͓̽&͓̽ ͓̽A͓̽z͓̽u͓̽r͓̽a͓̽ Premium Seelenverkäufer Uploader

    Registriert seit:
    25. März 2020
    Beiträge:
    391
    Zustimmungen:
    2.993
    (っ◔◡◔)っ ♥ Episode 3 online viel spaß ♥
     
    Mr.Shit gefällt das.

Diese Seite empfehlen