Wir verwenden Cookies, um deinen Aufenthalt auf Animes.so möglichst angenehm gestalten zu können. Mehr erfahren

Spice & Wolf [Laufend][Ger-Jap-Dub][Ger-Sub][AC-3|DTS-HD][720p|1080p][BluRay] - Fuuko

Dieses Thema im Forum "Anime Serien (Deutsch)" wurde erstellt von Fuuko, 6. Jan. 2020.

  1. Fuuko

    Fuuko Erfahrener Otaku Otaku König

    Registriert seit:
    19. Sep. 2018
    Beiträge:
    272
    Zustimmungen:
    11.433
    Spice & Wolf

    [​IMG][​IMG]

    [​IMG]
    [​IMG]
    Episoden: 08 / 12
    Spieldauer: 24 Min.
    Source: Deutsche Original BluRay
    Release by: Fuuko
    Format: mkv
    Sprache: Deutsch [5.1] | Japanisch [2.0]
    Untertitel: Deutsch (Full) | Deutsch (Forced)
    Audio: AC-3 [640 kb/s] | DTS-HD [~3500 kb/s] | PCM [~2300 kb/s]
    Auflösung : 1280x720 | 1920x1080
    Größe: 800MB | 2100MB | 2900MB
    Code:
    Complete name               : Spice.and.Wolf.E01.German.AC3.DL.720p.BluRay.x264-Fuuko.mkv
    Format                      : Matroska
    Format version              : Version 4
    File size                   : 798 MiB
    Duration                    : 23 min 52 s
    Overall bit rate            : 4 670 kb/s
    Encoded date                : UTC 2020-03-22 23:23:20
    Writing application         : mkvmerge v10.0.0 ('To Drown In You') 64bit
    Writing library             : libebml v1.3.4 + libmatroska v1.4.5
    
    Video
    ID                          : 1
    Format                      : AVC
    Format/Info                 : Advanced Video Codec
    Format profile              : High@L4.1
    Format settings             : CABAC / 4 Ref Frames
    Format settings, CABAC      : Yes
    Format settings, ReFrames   : 4 frames
    Codec ID                    : V_MPEG4/ISO/AVC
    Duration                    : 23 min 52 s
    Bit rate                    : 3 369 kb/s
    Width                       : 1 280 pixels
    Height                      : 720 pixels
    Display aspect ratio        : 16:9
    Frame rate mode             : Constant
    Frame rate                  : 23.976 (24000/1001) FPS
    Color space                 : YUV
    Chroma subsampling          : 4:2:0
    Bit depth                   : 8 bits
    Scan type                   : Progressive
    Bits/(Pixel*Frame)          : 0.152
    Stream size                 : 575 MiB (72%)
    Writing library             : x264 core 157 r2935 545de2f
    Encoding settings           : cabac=1 / ref=3 / deblock=1:0:0 / analyse=0x3:0x133 / me=umh / subme=9 / psy=1 / psy_rd=1.00:0.00 / mixed_ref=1 / me_range=32 / chroma_me=1 / trellis=2 / 8x8dct=1 / cqm=0 / deadzone=21,11 / fast_pskip=0 / chroma_qp_offset=-2 / threads=12 / lookahead_threads=1 / sliced_threads=0 / nr=0 / decimate=0 / interlaced=0 / bluray_compat=0 / constrained_intra=0 / bframes=3 / b_pyramid=2 / b_adapt=2 / b_bias=0 / direct=3 / weightb=1 / open_gop=0 / weightp=2 / keyint=250 / keyint_min=24 / scenecut=40 / intra_refresh=0 / rc_lookahead=48 / rc=crf / mbtree=1 / crf=16.0 / qcomp=0.70 / qpmin=0 / qpmax=69 / qpstep=4 / vbv_maxrate=62500 / vbv_bufsize=78125 / crf_max=0.0 / nal_hrd=none / filler=0 / ip_ratio=1.40 / aq=3:1.00
    Default                     : Yes
    Forced                      : No
    Color range                 : Limited
    Color primaries             : BT.709
    Transfer characteristics    : BT.709
    Matrix coefficients         : BT.709
    
    Audio #1
    ID                          : 2
    Format                      : AC-3
    Format/Info                 : Audio Coding 3
    Commercial name             : Dolby Digital
    Codec ID                    : A_AC3
    Duration                    : 23 min 52 s
    Bit rate mode               : Constant
    Bit rate                    : 640 kb/s
    Channel(s)                  : 6 channels
    Channel layout              : L R C LFE Ls Rs
    Sampling rate               : 48.0 kHz
    Frame rate                  : 31.250 FPS (1536 SPF)
    Bit depth                   : 16 bits
    Compression mode            : Lossy
    Stream size                 : 109 MiB (14%)
    Language                    : German
    Service kind                : Complete Main
    Default                     : Yes
    Forced                      : No
    
    Audio #2
    ID                          : 3
    Format                      : AC-3
    Format/Info                 : Audio Coding 3
    Commercial name             : Dolby Digital
    Codec ID                    : A_AC3
    Duration                    : 23 min 52 s
    Bit rate mode               : Constant
    Bit rate                    : 640 kb/s
    Channel(s)                  : 2 channels
    Channel layout              : L R
    Sampling rate               : 48.0 kHz
    Frame rate                  : 31.250 FPS (1536 SPF)
    Bit depth                   : 16 bits
    Compression mode            : Lossy
    Stream size                 : 109 MiB (14%)
    Language                    : Japanese
    Service kind                : Complete Main
    Default                     : No
    Forced                      : No
    
    Text #1
    ID                          : 4
    Format                      : PGS
    Muxing mode                 : zlib
    Codec ID                    : S_HDMV/PGS
    Codec ID/Info               : Picture based subtitle format used on BDs/HD-DVDs
    Duration                    : 23 min 50 s
    Bit rate                    : 200 b/s
    Count of elements           : 6
    Stream size                 : 35.0 KiB (0%)
    Language                    : German
    Default                     : No
    Forced                      : No
    
    Text #2
    ID                          : 5
    Format                      : PGS
    Muxing mode                 : zlib
    Codec ID                    : S_HDMV/PGS
    Codec ID/Info               : Picture based subtitle format used on BDs/HD-DVDs
    Duration                    : 23 min 50 s
    Bit rate                    : 18.7 kb/s
    Count of elements           : 612
    Stream size                 : 3.19 MiB (0%)
    Language                    : German
    Default                     : No
    Forced                      : No
    
    Menu
    00:00:00.000                : en:(01)00:00:00:000
    00:01:31.216                : en:(02)00:01:31:216
    00:13:48.994                : en:(03)00:13:48:994
    00:22:10.996                : en:(04)00:22:10:996
    Code:
    Complete name               : Spice.and.Wolf.E01.German.AC3.DL.1080p.BluRay.x264-Fuuko.mkv
    Format                      : Matroska
    Format version              : Version 4
    File size                   : 2.04 GiB
    Duration                    : 23 min 52 s
    Overall bit rate            : 12.2 Mb/s
    Encoded date                : UTC 2020-03-22 23:24:14
    Writing application         : mkvmerge v10.0.0 ('To Drown In You') 64bit
    Writing library             : libebml v1.3.4 + libmatroska v1.4.5
    
    Video
    ID                          : 1
    Format                      : AVC
    Format/Info                 : Advanced Video Codec
    Format profile              : High@L4.1
    Format settings             : CABAC / 4 Ref Frames
    Format settings, CABAC      : Yes
    Format settings, ReFrames   : 4 frames
    Codec ID                    : V_MPEG4/ISO/AVC
    Duration                    : 23 min 52 s
    Bit rate                    : 10.9 Mb/s
    Width                       : 1 920 pixels
    Height                      : 1 080 pixels
    Display aspect ratio        : 16:9
    Frame rate mode             : Constant
    Frame rate                  : 23.976 (24000/1001) FPS
    Color space                 : YUV
    Chroma subsampling          : 4:2:0
    Bit depth                   : 8 bits
    Scan type                   : Progressive
    Bits/(Pixel*Frame)          : 0.219
    Stream size                 : 1.82 GiB (89%)
    Writing library             : x264 core 157 r2935 545de2f
    Encoding settings           : cabac=1 / ref=3 / deblock=1:0:0 / analyse=0x3:0x133 / me=umh / subme=9 / psy=1 / psy_rd=1.00:0.00 / mixed_ref=1 / me_range=32 / chroma_me=1 / trellis=2 / 8x8dct=1 / cqm=0 / deadzone=21,11 / fast_pskip=0 / chroma_qp_offset=-2 / threads=12 / lookahead_threads=1 / sliced_threads=0 / nr=0 / decimate=0 / interlaced=0 / bluray_compat=0 / constrained_intra=0 / bframes=3 / b_pyramid=2 / b_adapt=2 / b_bias=0 / direct=3 / weightb=1 / open_gop=0 / weightp=2 / keyint=250 / keyint_min=24 / scenecut=40 / intra_refresh=0 / rc_lookahead=48 / rc=crf / mbtree=1 / crf=16.0 / qcomp=0.70 / qpmin=0 / qpmax=69 / qpstep=4 / vbv_maxrate=62500 / vbv_bufsize=78125 / crf_max=0.0 / nal_hrd=none / filler=0 / ip_ratio=1.40 / aq=3:1.00
    Default                     : Yes
    Forced                      : No
    Color range                 : Limited
    Color primaries             : BT.709
    Transfer characteristics    : BT.709
    Matrix coefficients         : BT.709
    
    Audio #1
    ID                          : 2
    Format                      : AC-3
    Format/Info                 : Audio Coding 3
    Commercial name             : Dolby Digital
    Codec ID                    : A_AC3
    Duration                    : 23 min 52 s
    Bit rate mode               : Constant
    Bit rate                    : 640 kb/s
    Channel(s)                  : 6 channels
    Channel layout              : L R C LFE Ls Rs
    Sampling rate               : 48.0 kHz
    Frame rate                  : 31.250 FPS (1536 SPF)
    Bit depth                   : 16 bits
    Compression mode            : Lossy
    Stream size                 : 109 MiB (5%)
    Language                    : German
    Service kind                : Complete Main
    Default                     : Yes
    Forced                      : No
    
    Audio #2
    ID                          : 3
    Format                      : AC-3
    Format/Info                 : Audio Coding 3
    Commercial name             : Dolby Digital
    Codec ID                    : A_AC3
    Duration                    : 23 min 52 s
    Bit rate mode               : Constant
    Bit rate                    : 640 kb/s
    Channel(s)                  : 2 channels
    Channel layout              : L R
    Sampling rate               : 48.0 kHz
    Frame rate                  : 31.250 FPS (1536 SPF)
    Bit depth                   : 16 bits
    Compression mode            : Lossy
    Stream size                 : 109 MiB (5%)
    Language                    : Japanese
    Service kind                : Complete Main
    Default                     : No
    Forced                      : No
    
    Text #1
    ID                          : 4
    Format                      : PGS
    Muxing mode                 : zlib
    Codec ID                    : S_HDMV/PGS
    Codec ID/Info               : Picture based subtitle format used on BDs/HD-DVDs
    Duration                    : 23 min 50 s
    Bit rate                    : 200 b/s
    Count of elements           : 6
    Stream size                 : 35.0 KiB (0%)
    Language                    : German
    Default                     : No
    Forced                      : No
    
    Text #2
    ID                          : 5
    Format                      : PGS
    Muxing mode                 : zlib
    Codec ID                    : S_HDMV/PGS
    Codec ID/Info               : Picture based subtitle format used on BDs/HD-DVDs
    Duration                    : 23 min 50 s
    Bit rate                    : 18.7 kb/s
    Count of elements           : 612
    Stream size                 : 3.19 MiB (0%)
    Language                    : German
    Default                     : No
    Forced                      : No
    
    Menu
    00:00:00.000                : en:(01)00:00:00:000
    00:01:31.216                : en:(02)00:01:31:216
    00:13:48.994                : en:(03)00:13:48:994
    00:22:10.996                : en:(04)00:22:10:996
    Code:
    Complete name               : Spice.and.Wolf.E01.German.DTS.DL.1080p.BluRay.x264-Fuuko.mkv
    Format                      : Matroska
    Format version              : Version 4
    File size                   : 2.80 GiB
    Duration                    : 23 min 52 s
    Overall bit rate mode       : Variable
    Overall bit rate            : 16.8 Mb/s
    Encoded date                : UTC 2020-03-22 23:26:38
    Writing application         : mkvmerge v10.0.0 ('To Drown In You') 64bit
    Writing library             : libebml v1.3.4 + libmatroska v1.4.5
    
    Video
    ID                          : 1
    Format                      : AVC
    Format/Info                 : Advanced Video Codec
    Format profile              : High@L4.1
    Format settings             : CABAC / 4 Ref Frames
    Format settings, CABAC      : Yes
    Format settings, ReFrames   : 4 frames
    Codec ID                    : V_MPEG4/ISO/AVC
    Duration                    : 23 min 52 s
    Bit rate                    : 10.9 Mb/s
    Width                       : 1 920 pixels
    Height                      : 1 080 pixels
    Display aspect ratio        : 16:9
    Frame rate mode             : Constant
    Frame rate                  : 23.976 (24000/1001) FPS
    Color space                 : YUV
    Chroma subsampling          : 4:2:0
    Bit depth                   : 8 bits
    Scan type                   : Progressive
    Bits/(Pixel*Frame)          : 0.219
    Stream size                 : 1.82 GiB (65%)
    Writing library             : x264 core 157 r2935 545de2f
    Encoding settings           : cabac=1 / ref=3 / deblock=1:0:0 / analyse=0x3:0x133 / me=umh / subme=9 / psy=1 / psy_rd=1.00:0.00 / mixed_ref=1 / me_range=32 / chroma_me=1 / trellis=2 / 8x8dct=1 / cqm=0 / deadzone=21,11 / fast_pskip=0 / chroma_qp_offset=-2 / threads=12 / lookahead_threads=1 / sliced_threads=0 / nr=0 / decimate=0 / interlaced=0 / bluray_compat=0 / constrained_intra=0 / bframes=3 / b_pyramid=2 / b_adapt=2 / b_bias=0 / direct=3 / weightb=1 / open_gop=0 / weightp=2 / keyint=250 / keyint_min=24 / scenecut=40 / intra_refresh=0 / rc_lookahead=48 / rc=crf / mbtree=1 / crf=16.0 / qcomp=0.70 / qpmin=0 / qpmax=69 / qpstep=4 / vbv_maxrate=62500 / vbv_bufsize=78125 / crf_max=0.0 / nal_hrd=none / filler=0 / ip_ratio=1.40 / aq=3:1.00
    Default                     : Yes
    Forced                      : No
    Color range                 : Limited
    Color primaries             : BT.709
    Transfer characteristics    : BT.709
    Matrix coefficients         : BT.709
    
    Audio #1
    ID                          : 2
    Format                      : DTS XLL
    Format/Info                 : Digital Theater Systems
    Commercial name             : DTS-HD Master Audio
    Codec ID                    : A_DTS
    Duration                    : 23 min 52 s
    Bit rate mode               : Variable
    Bit rate                    : 3 571 kb/s
    Channel(s)                  : 6 channels
    Channel layout              : C L R Ls Rs LFE
    Sampling rate               : 48.0 kHz
    Frame rate                  : 93.750 FPS (512 SPF)
    Bit depth                   : 24 bits
    Compression mode            : Lossless
    Stream size                 : 610 MiB (21%)
    Language                    : German
    Default                     : Yes
    Forced                      : No
    
    Audio #2
    ID                          : 3
    Format                      : PCM
    Format settings             : Little / Signed
    Codec ID                    : A_PCM/INT/LIT
    Duration                    : 23 min 52 s
    Bit rate mode               : Constant
    Bit rate                    : 2 304 kb/s
    Channel(s)                  : 2 channels
    Sampling rate               : 48.0 kHz
    Frame rate                  : 32.000 FPS (1500 SPF)
    Bit depth                   : 24 bits
    Stream size                 : 393 MiB (14%)
    Language                    : Japanese
    Default                     : No
    Forced                      : No
    
    Text #1
    ID                          : 4
    Format                      : PGS
    Muxing mode                 : zlib
    Codec ID                    : S_HDMV/PGS
    Codec ID/Info               : Picture based subtitle format used on BDs/HD-DVDs
    Duration                    : 23 min 50 s
    Bit rate                    : 303 b/s
    Count of elements           : 6
    Stream size                 : 52.9 KiB (0%)
    Language                    : German
    Default                     : No
    Forced                      : No
    
    Text #2
    ID                          : 5
    Format                      : PGS
    Muxing mode                 : zlib
    Codec ID                    : S_HDMV/PGS
    Codec ID/Info               : Picture based subtitle format used on BDs/HD-DVDs
    Duration                    : 23 min 50 s
    Bit rate                    : 19.5 kb/s
    Count of elements           : 612
    Stream size                 : 3.32 MiB (0%)
    Language                    : German
    Default                     : No
    Forced                      : No
    
    Menu
    00:00:00.000                : en:(01)00:00:00:000
    00:01:31.216                : en:(02)00:01:31:216
    00:13:48.994                : en:(03)00:13:48:994
    00:22:10.996                : en:(04)00:22:10:996
    [​IMG] [​IMG]
    Ton von E05 - E08 war asynchron
    Für alle, die es schon geladen haben, gibt es einen Soundfix einzeln

    720p - AC-3 [​IMG]
    1080p - AC-3 [​IMG]
    1080p - DTS-HD [​IMG]
    Geschützter Bereich
    Registriere dich oder logge dich ein, um den Inhalt sehen zu können
     
    Zuletzt bearbeitet: 25. März 2020 um 20:59 Uhr
  2. Fuuko

    Fuuko Erfahrener Otaku Otaku König

    Registriert seit:
    19. Sep. 2018
    Beiträge:
    272
    Zustimmungen:
    11.433
    Update:
    • Für alle asynchronen Episoden einen Soundfix durchgeführt und die Downloads getauscht
    • Sofern nur die Tonspur ausgetauscht werden soll, benutzt den mega.nz Download
    Tut mir leid, bei der Anzahl an Encodes gehen solche Fehler schnell unter. In Zukunft bitte auf meinem Profil melden
     
    OP6 und 1Ranger gefällt das.

Diese Seite empfehlen