1. Die erweiterte Suche funktioniert wieder. Die LiveSearch ist vorübergehend deaktiviert

Wir verwenden Cookies, um deinen Aufenthalt auf Animes.so möglichst angenehm gestalten zu können. Mehr erfahren

Strike Witches S2 [Jap-Dub][Ger-Sub][720p|1080p][BluRay] - AKA

Dieses Thema im Forum "Serien (GerSub)" wurde erstellt von Yin, 19. Jan. 2016.

  1. Yin

    Yin Offizieller Bot von Animes.so Animes.so Staff

    Registriert seit:
    9. Aug. 2017
    Beiträge:
    1
    Zustimmungen:
    3.770

    Strike Witches 2
    ストライクウィッチーズ 2



    [​IMG]


    Kurzbeschreibung:


    Spieldauer: 25min
    Genre: Actionkomödie
    Nebengenres: Action, Ecchi, Fantasy, Komödie, Männlich
    Jahr: 2010
    Sprache: [​IMG]Japanisch
    Untertitel: [​IMG]Deutsch
    Größe pro Folge: ~251 MiB ~401 MiB
    Episodenanzahl: 12/12
    Format: MP4, MKV
    Auflösung: 720p (16:9), 1080p (16:9)
    Videocodec: x264 (AVC)
    Audiocodec: AAC
    Releasegruppe: Akatsuki-Subs
    Hoster: [​IMG]Share-Online, [​IMG]Uploaded


    Code:
    
    Format                                   : MPEG-4
    Format profile                           : Base Media
    Codec ID                                 : isom
    File size                                : 251 MiB
    Duration                                 : 24mn 26s
    Overall bit rate mode                    : Variable
    Overall bit rate                         : 1 437 Kbps
    Encoded date                             : UTC 2010-12-01 15:23:01
    Tagged date                              : UTC 2010-12-01 15:23:01
    
    Video
    ID                                       : 1
    Format                                   : AVC
    Format/Info                              : Advanced Video Codec
    Format profile                           : High@L4.1
    Format settings, CABAC                   : Yes
    Format settings, ReFrames                : 4 frames
    Codec ID                                 : avc1
    Codec ID/Info                            : Advanced Video Coding
    Duration                                 : 24mn 26s
    Bit rate                                 : 1 239 Kbps
    Maximum bit rate                         : 7 043 Kbps
    Width                                    : 1 280 pixels
    Height                                   : 720 pixels
    Display aspect ratio                     : 16:9
    Frame rate mode                          : Constant
    Frame rate                               : 23.976 fps
    Color space                              : YUV
    Chroma subsampling                       : 4:2:0
    Bit depth                                : 8 bits
    Scan type                                : Progressive
    Bits/(Pixel*Frame)                       : 0.056
    Stream size                              : 217 MiB (86%)
    Writing library                          : x264 core 110 r1804 e89c4cf
    Encoding settings                        : cabac=1 / ref=3 / deblock=1:0:0 / analyse=0x3:0x113 / me=umh / subme=7 / psy=1 / psy_rd=1.00:0.00 / mixed_ref=1 / me_range=16 / chroma_me=1 / trellis=1 / 8x8dct=1 / cqm=0 / deadzone=21,11 / fast_pskip=1 / chroma_qp_offset=-2 / threads=6 / sliced_threads=0 / nr=0 / decimate=1 / interlaced=0 / constrained_intra=0 / bframes=3 / b_pyramid=2 / b_adapt=1 / b_bias=0 / direct=1 / weightb=1 / open_gop=0 / weightp=2 / keyint=250 / keyint_min=23 / scenecut=40 / intra_refresh=0 / rc_lookahead=40 / rc=2pass / mbtree=1 / bitrate=1239 / ratetol=1.0 / qcomp=0.60 / qpmin=10 / qpmax=51 / qpstep=4 / cplxblur=20.0 / qblur=0.5 / vbv_maxrate=24000 / vbv_bufsize=24000 / ip_ratio=1.40 / aq=1:1.00 / nal_hrd=none
    Encoded date                             : UTC 2010-12-01 15:09:13
    Tagged date                              : UTC 2010-12-01 15:23:05
    
    Audio
    ID                                       : 2
    Format                                   : AAC
    Format/Info                              : Advanced Audio Codec
    Format profile                           : LC
    Codec ID                                 : 40
    Duration                                 : 24mn 26s
    Bit rate mode                            : Variable
    Bit rate                                 : 192 Kbps
    Maximum bit rate                         : 226 Kbps
    Channel(s)                               : 2 channels
    Channel positions                        : Front: L R
    Sampling rate                            : 48.0 KHz
    Compression mode                         : Lossy
    Stream size                              : 33.9 MiB (13%)
    Language                                 : Japanese
    Encoded date                             : UTC 2010-12-01 15:23:02
    Tagged date                              : UTC 2010-12-01 15:23:05
    
    

    Code:
    
    Format                                   : Matroska
    Format version                           : Version 2
    File size                                : 401 MiB
    Duration                                 : 24mn 26s
    Overall bit rate                         : 2 295 Kbps
    Encoded date                             : UTC 2010-11-29 21:54:54
    Writing application                      : mkvmerge v4.4.0 ('Die Wiederkehr') built on Oct 31 2010 21:52:48
    Writing library                          : libebml v1.0.0 + libmatroska v1.0.0
    
    Video
    ID                                       : 1
    Format                                   : AVC
    Format/Info                              : Advanced Video Codec
    Format profile                           : High@L4.1
    Format settings, CABAC                   : Yes
    Format settings, ReFrames                : 9 frames
    Codec ID                                 : V_MPEG4/ISO/AVC
    Duration                                 : 24mn 26s
    Nominal bit rate                         : 2 099 Kbps
    Width                                    : 1 920 pixels
    Height                                   : 1 080 pixels
    Display aspect ratio                     : 16:9
    Frame rate mode                          : Constant
    Frame rate                               : 23.976 fps
    Color space                              : YUV
    Chroma subsampling                       : 4:2:0
    Bit depth                                : 8 bits
    Scan type                                : Progressive
    Bits/(Pixel*Frame)                       : 0.042
    Writing library                          : x264 core 107 r1766 f9f0035
    Encoding settings                        : cabac=1 / ref=9 / deblock=1:-1:-1 / analyse=0x3:0x113 / me=umh / subme=7 / psy=1 / psy_rd=0.60:0.00 / mixed_ref=1 / me_range=16 / chroma_me=1 / trellis=2 / 8x8dct=1 / cqm=0 / deadzone=21,11 / fast_pskip=1 / chroma_qp_offset=-2 / threads=6 / sliced_threads=0 / nr=0 / decimate=1 / interlaced=0 / constrained_intra=0 / bframes=5 / b_pyramid=2 / b_adapt=1 / b_bias=0 / direct=3 / weightb=1 / open_gop=0 / weightp=2 / keyint=250 / keyint_min=23 / scenecut=40 / intra_refresh=0 / rc_lookahead=40 / rc=2pass / mbtree=1 / bitrate=2099 / ratetol=1.0 / qcomp=0.60 / qpmin=10 / qpmax=51 / qpstep=4 / cplxblur=20.0 / qblur=0.5 / vbv_maxrate=24000 / vbv_bufsize=24000 / ip_ratio=1.40 / aq=1:1.00 / nal_hrd=none
    Default                                  : Yes
    Forced                                   : No
    
    Audio
    ID                                       : 2
    Format                                   : AAC
    Format/Info                              : Advanced Audio Codec
    Format profile                           : LC
    Codec ID                                 : A_AAC
    Duration                                 : 24mn 26s
    Channel(s)                               : 2 channels
    Channel positions                        : Front: L R
    Sampling rate                            : 48.0 KHz
    Compression mode                         : Lossy
    Language                                 : Japanese
    Default                                  : Yes
    Forced                                   : No
    
    




    [​IMG]

    Online-Status: 720p[​IMG]/1080p[​IMG]
    Geschützter Bereich
    Registriere dich oder logge dich ein, um den Inhalt sehen zu können
     
    Lasted edited by : 25. Jan. 2017
    ht_wbc_, Tomoya, greatcwwc und 28 anderen gefällt das.
  2. Yin

    Yin Offizieller Bot von Animes.so Animes.so Staff

    Registriert seit:
    9. Aug. 2017
    Beiträge:
    1
    Zustimmungen:
    3.770