Welcome to our Community
Wanting to join the rest of our members? Feel free to sign up today.
Sign up

Suppose a Kid from the Last Dungeon Boonies moved to a Starter Town[Jap-Dub][Ger-Eng-Sub][720p|1080p][Web-DL] - CR

Azugo

H͓̽u͓̽g͓̽o͓̽ ͓̽&͓̽ ͓̽A͓̽z͓̽u͓̽r͓̽a͓̽
Otaku Gott
Uploader
25 März 2020
3.369
28.385
118

Suppose a Kid from the Last Dungeon Boonies moved to a Starter Town
Tatoeba Last Dungeon Mae no Mura no Shounen ga Joban no Machi de Kurasu You na Monogatari
たとえばラストダンジョン前の村の少年が序盤の街で暮らすような物語
y9JN2oq.jpg


oie_bchbujbgr3vm1-png.30596

Sein ganzes Leben über wurde er als Schwächling angesehen. Abenteurer-Frischling Lloyd verlässt sein Dorf, das sich am Rande der sterblichen Welt befindet, um seinen Traum zu verwirklichen, ein Soldat zu werden. Als er in der Hauptstadt ankommt, bemerken die Leute, dass dieses Kind womöglich stärker ist, als es aussieht.
by wakanim

oie_bchbujbgr3vm1-png.30596


Folgen: 12/12
Größe pro Folge: ~710 MB | ~1370 MB
Releaser: Anime BluRay Junkies
Art: Lizenzrelease
Sprache: Japanisch
Untertitel: Deutsch, Englisch
Jahr: 2021
Genres: Abenteuer, Action, Fantasy, Komödie, Alternative Welt, Magie, Schwerter & Co.
Auflösung: 1280x720 | 1920x1080
Format: MKV
Quelle: WebRip
Videocodec: x264
Farbtiefe: 8bit
Audiocodec: AAC
Publisher: Liden Films Inc. | Wakanim
Hoster: DDownload | Rapidgator


oie_bchbujbgr3vm2-png.30597

Code:
[color=Turquoise]Format                                   : Matroska
Format version                           : Version 4
File size                                : 710 MiB
Duration                                 : 24 min 6 s
Overall bit rate                         : 4 121 kb/s
Encoded date                             : UTC 2022-03-03 21:32:50
Writing application                      : mkvmerge v65.0.0 ('Too Much') 64-bit
Writing library                          : libebml v1.4.2 + libmatroska v1.6.4
Attachments                              : arial.ttf / verdana.ttf

Video
ID                                       : 1
Format                                   : AVC
Format/Info                              : Advanced Video Codec
Format profile                           : [email protected]
Format settings                          : CABAC / 6 Ref Frames
Format settings, CABAC                   : Yes
Format settings, Reference frames        : 6 frames
Codec ID                                 : V_MPEG4/ISO/AVC
Duration                                 : 24 min 6 s
Bit rate                                 : 4 000 kb/s
Width                                    : 1 280 pixels
Height                                   : 720 pixels
Display aspect ratio                     : 16:9
Frame rate mode                          : Constant
Frame rate                               : 23.976 (24000/1001) FPS
Color space                              : YUV
Chroma subsampling                       : 4:2:0
Bit depth                                : 8 bits
Scan type                                : Progressive
Bits/(Pixel*Frame)                       : 0.181
Stream size                              : 687 MiB (97%)
Title                                    : [AO]
Writing library                          : x264 core 142
Encoding settings                        : cabac=1 / ref=6 / deblock=1:1:1 / analyse=0x3:0x113 / me=umh / subme=8 / psy=1 / psy_rd=0.40:0.00 / mixed_ref=1 / me_range=16 / chroma_me=1 / trellis=1 / 8x8dct=1 / cqm=0 / deadzone=21,11 / fast_pskip=1 / chroma_qp_offset=-2 / threads=10 / lookahead_threads=1 / sliced_threads=0 / nr=0 / decimate=1 / interlaced=0 / bluray_compat=0 / constrained_intra=0 / bframes=0 / weightp=2 / keyint=96 / keyint_min=48 / scenecut=40 / intra_refresh=0 / rc_lookahead=48 / rc=2pass / mbtree=1 / bitrate=4000 / ratetol=1.0 / qcomp=0.60 / qpmin=0 / qpmax=69 / qpstep=4 / cplxblur=20.0 / qblur=0.5 / vbv_maxrate=6000 / vbv_bufsize=9000 / nal_hrd=none / filler=0 / ip_ratio=1.40 / aq=1:0.60
Default                                  : No
Forced                                   : No

Audio
ID                                       : 2
Format                                   : AAC LC
Format/Info                              : Advanced Audio Codec Low Complexity
Codec ID                                 : A_AAC-2
Duration                                 : 24 min 6 s
Bit rate                                 : 128 kb/s
Channel(s)                               : 2 channels
Channel layout                           : L R
Sampling rate                            : 44.1 kHz
Frame rate                               : 43.066 FPS (1024 SPF)
Compression mode                         : Lossy
Stream size                              : 22.1 MiB (3%)
Title                                    : Japanese
Language                                 : Japanese
Default                                  : No
Forced                                   : No

Text #1
ID                                       : 3
Format                                   : ASS
Codec ID                                 : S_TEXT/ASS
Codec ID/Info                            : Advanced Sub Station Alpha
Duration                                 : 23 min 6 s
Bit rate                                 : 125 b/s
Count of elements                        : 315
Compression mode                         : Lossless
Stream size                              : 21.2 KiB (0%)
Title                                    : English / English (US)
Language                                 : English
Default                                  : No
Forced                                   : No

Text #2
ID                                       : 4
Format                                   : ASS
Codec ID                                 : S_TEXT/ASS
Codec ID/Info                            : Advanced Sub Station Alpha
Duration                                 : 22 min 38 s
Bit rate                                 : 157 b/s
Count of elements                        : 371
Compression mode                         : Lossless
Stream size                              : 26.0 KiB (0%)
Title                                    : German / Deutsch
Language                                 : German
Default                                  : Yes
Forced                                   : No


[/color]
Code:
[color=Turquoise]Format                                   : Matroska
Format version                           : Version 4
File size                                : 1.37 GiB
Duration                                 : 24 min 6 s
Overall bit rate                         : 8 127 kb/s
Encoded date                             : UTC 2022-03-03 21:32:44
Writing application                      : mkvmerge v65.0.0 ('Too Much') 64-bit
Writing library                          : libebml v1.4.2 + libmatroska v1.6.4
Attachments                              : arial.ttf / verdana.ttf

Video
ID                                       : 1
Format                                   : AVC
Format/Info                              : Advanced Video Codec
Format profile                           : [email protected]
Format settings                          : CABAC / 4 Ref Frames
Format settings, CABAC                   : Yes
Format settings, Reference frames        : 4 frames
Codec ID                                 : V_MPEG4/ISO/AVC
Duration                                 : 24 min 6 s
Bit rate                                 : 8 000 kb/s
Width                                    : 1 920 pixels
Height                                   : 1 080 pixels
Display aspect ratio                     : 16:9
Frame rate mode                          : Constant
Frame rate                               : 23.976 (24000/1001) FPS
Color space                              : YUV
Chroma subsampling                       : 4:2:0
Bit depth                                : 8 bits
Scan type                                : Progressive
Bits/(Pixel*Frame)                       : 0.161
Stream size                              : 1.35 GiB (98%)
Title                                    : [AO]
Writing library                          : x264 core 142
Encoding settings                        : cabac=1 / ref=4 / deblock=1:1:1 / analyse=0x3:0x113 / me=umh / subme=8 / psy=1 / psy_rd=0.40:0.00 / mixed_ref=1 / me_range=16 / chroma_me=1 / trellis=1 / 8x8dct=1 / cqm=0 / deadzone=21,11 / fast_pskip=1 / chroma_qp_offset=-2 / threads=12 / lookahead_threads=2 / sliced_threads=0 / nr=0 / decimate=1 / interlaced=0 / bluray_compat=0 / constrained_intra=0 / bframes=0 / weightp=2 / keyint=96 / keyint_min=48 / scenecut=40 / intra_refresh=0 / rc_lookahead=48 / rc=2pass / mbtree=1 / bitrate=8000 / ratetol=1.0 / qcomp=0.60 / qpmin=0 / qpmax=69 / qpstep=4 / cplxblur=20.0 / qblur=0.5 / vbv_maxrate=12000 / vbv_bufsize=18000 / nal_hrd=none / filler=0 / ip_ratio=1.40 / aq=1:0.60
Default                                  : No
Forced                                   : No

Audio
ID                                       : 2
Format                                   : AAC LC
Format/Info                              : Advanced Audio Codec Low Complexity
Codec ID                                 : A_AAC-2
Duration                                 : 24 min 6 s
Bit rate                                 : 128 kb/s
Channel(s)                               : 2 channels
Channel layout                           : L R
Sampling rate                            : 44.1 kHz
Frame rate                               : 43.066 FPS (1024 SPF)
Compression mode                         : Lossy
Stream size                              : 22.1 MiB (2%)
Title                                    : Japanese
Language                                 : Japanese
Default                                  : No
Forced                                   : No

Text #1
ID                                       : 3
Format                                   : ASS
Codec ID                                 : S_TEXT/ASS
Codec ID/Info                            : Advanced Sub Station Alpha
Duration                                 : 23 min 6 s
Bit rate                                 : 125 b/s
Count of elements                        : 315
Compression mode                         : Lossless
Stream size                              : 21.2 KiB (0%)
Title                                    : English / English (US)
Language                                 : English
Default                                  : No
Forced                                   : No

Text #2
ID                                       : 4
Format                                   : ASS
Codec ID                                 : S_TEXT/ASS
Codec ID/Info                            : Advanced Sub Station Alpha
Duration                                 : 22 min 38 s
Bit rate                                 : 157 b/s
Count of elements                        : 371
Compression mode                         : Lossless
Stream size                              : 26.0 KiB (0%)
Title                                    : German / Deutsch
Language                                 : German
Default                                  : Yes
Forced                                   : No
[/color]



oie_bchbujbgr3vm3-png.30598

cooltext396117611400625-png.30739

ED0CAFF921.png

cooltext3961176114006251-png.30741

CDD9BBBB1B.png

To view the content, you need to Sign In or Register.

 
Zuletzt bearbeitet: