1. Die erweiterte Suche funktioniert wieder. Die LiveSearch wird gegen Ende der Woche wieder funktionieren.

Wir verwenden Cookies, um deinen Aufenthalt auf Animes.so möglichst angenehm gestalten zu können. Mehr erfahren

Taimadou Gakuen 35 Shiken Shoutai | Anti Magic Academy: Test-Trupp 35 [Laufend][Ger-Jap-Dub][Ger-Sub][MP3|AC-3|DTS-HD][408p|720p|1080p][BluRay] - AST4u

Dieses Thema im Forum "Serien (GerDub)" wurde erstellt von ClipperSunny, 20. Juni 2018.

  1. ClipperSunny

    ClipperSunny 100% Anime Otaku König

    Registriert seit:
    27. Jan. 2018
    Beiträge:
    341
    Zustimmungen:
    9.311
    Anti Magic Academy: Test-Trupp 35
    Taimadou Gakuen 35 Shiken Shoutai
    Anti-Magic Academy: The 35th Test Platoon

    [​IMG]
    Taimadou Gakuen 35 Shiken Shoutai | Anti Magic Academy: Test-Trupp 35 [Ger-Jap-Dub][Ger-Sub][MP3|AC-3|DTS-HD][408p|720p|1080p][BluRay] - AST4u

    Animeinformationen
    Kurzbeschreibung by AniSearch.de
    Menschen mit magischen Kräften stehen kurz vor ihrer Auslöschung. Genau wie sich einst die Balance von Kraft und militärischer Macht von Schwertern zu Zauberei verlagerte, so verschiebt sie sich nun erneut zu Schusswaffen. Takeru Kusanagi ist ein Schüler der AntiMagic Academy, eine Trainingseinrichtung für Inquisitoren, die gegen die schwindende Gefahr durch Magienutzer vorgehen. Allerdings ist Takeru nicht dazu in der Lage Schusswaffen zu verwenden und kann aussschließlich mit einem Schwert kämpfen. Infolgedessen wird er in das 35th Test Platoon verwiesen, welches aus schwachen Schülern zusammengewürfelt ist. Eines Tages tritt Ouka Ootori, eine elitäre Pistolenmeisterin, die bereits die Qualifikationen zur Hexenjagd hat, dem 35th Test Platoon bei.


    Studio: SILVER LINK.
    Genre: Action
    Nebengenre: Action, Drama, Ecchi, Fantasy, Harem, Komödie, Mecha, Romanze
    Spieldauer: 24 Min.
    Jahr: 2015

    Releaseinformationen
    Episoden: 8 / 12
    Sprache:
    Deutsch, Japanisch
    Untertitel: Deutsch
    Publisher: KSM GmbH
    Release-Gruppe: AST4u
    Quelle: BluRay
    Format: AVI | MKV
    Video-Codec: XviD | x264
    Farbtiefe: 8bit
    Audio-Codec: MP3 | AC3 | DTS-HD
    Audio-Kanäle: GER MP3 2.0 | JAP MP3 2.0 || GER AC3 5.1 | JAP AC3 2.0 || GER AC3 5.1 | JAP AC3 2.0 || GER DTS-HD 5.1 | JAP DTS-HD 2.0
    Auflösung: 408p | 720p | 1080p
    Größe: 181 MB | 332 MB | 573 MB | 1.09 GB
    Hoster: Share-Online.biz

    Mediainfo
    Code:
    General
    Complete name                            : Ant-Magc.Academy.Test-Trupp.35.Ep.01.German.DL.MP3.BluRay.Xvd.AST4u
    Format                                   : Matroska
    Format version                           : Version 4 / Version 2
    File size                                : 181 MiB
    Duration                                 : 23 min 41 s
    Overall bit rate                         : 1 065 kb/s
    Movie name                               : S01E01 Sassenach
    Encoded date                             : UTC 2018-06-20 13:03:08
    Writing application                      : mkvmerge v8.1.0 ('Psychedelic Postcard') 32bit
    Writing library                          : libebml v1.3.1 + libmatroska v1.4.2
    FileExtension_Invalid                    : mkv mk3d mka mks
    
    Video
    ID                                       : 3
    Format                                   : MPEG-4 Visual
    Format profile                           : Advanced Simple@L5
    Format settings                          : BVOP2
    Format settings, BVOP                    : 2
    Format settings, QPel                    : No
    Format settings, GMC                     : No warppoints
    Format settings, Matrix                  : Default (MPEG)
    Codec ID                                 : V_MS/VFW/FOURCC / XVID
    Codec ID/Hint                            : XviD
    Duration                                 : 23 min 41 s
    Bit rate                                 : 652 kb/s
    Width                                    : 720 pixels
    Height                                   : 408 pixels
    Display aspect ratio                     : 16:9
    Frame rate mode                          : Constant
    Frame rate                               : 23.976 (24000/1001) FPS
    Color space                              : YUV
    Chroma subsampling                       : 4:2:0
    Bit depth                                : 8 bits
    Scan type                                : Progressive
    Compression mode                         : Lossy
    Bits/(Pixel*Frame)                       : 0.093
    Stream size                              : 110 MiB (61%)
    Writing library                          : XviD 67
    Default                                  : Yes
    Forced                                   : No
    
    Audio #1
    ID                                       : 4
    Format                                   : MPEG Audio
    Format version                           : Version 1
    Format profile                           : Layer 3
    Format settings                          : Joint stereo
    Codec ID                                 : A_MPEG/L3
    Codec ID/Hint                            : MP3
    Duration                                 : 23 min 41 s
    Bit rate mode                            : Constant
    Bit rate                                 : 192 kb/s
    Channel(s)                               : 2 channels
    Sampling rate                            : 48.0 kHz
    Frame rate                               : 41.667 FPS (1152 SPF)
    Compression mode                         : Lossy
    Stream size                              : 32.5 MiB (18%)
    Writing library                          : LAME3.99r
    Encoding settings                        : -m j -V 4 -q 2 -lowpass 18.6 -b 192
    Language                                 : German
    Default                                  : Yes
    Forced                                   : No
    
    Audio #2
    ID                                       : 5
    Format                                   : MPEG Audio
    Format version                           : Version 1
    Format profile                           : Layer 3
    Format settings                          : Joint stereo
    Codec ID                                 : A_MPEG/L3
    Codec ID/Hint                            : MP3
    Duration                                 : 23 min 41 s
    Bit rate mode                            : Constant
    Bit rate                                 : 192 kb/s
    Channel(s)                               : 2 channels
    Sampling rate                            : 48.0 kHz
    Frame rate                               : 41.667 FPS (1152 SPF)
    Compression mode                         : Lossy
    Stream size                              : 32.5 MiB (18%)
    Writing library                          : LAME3.99r
    Encoding settings                        : -m j -V 4 -q 2 -lowpass 18.6 -b 192
    Language                                 : Japanese
    Default                                  : No
    Forced                                   : No
    
    Text #1
    ID                                       : 1
    Format                                   : PGS
    Muxing mode                              : zlib
    Codec ID                                 : S_HDMV/PGS
    Codec ID/Info                            : Picture based subtitle format used on BDs/HD-DVDs
    Duration                                 : 22 min 14 s
    Bit rate                                 : 1 469 b/s
    Count of elements                        : 36
    Stream size                              : 239 KiB (0%)
    Language                                 : German
    Default                                  : Yes
    Forced                                   : No
    
    Text #2
    ID                                       : 2
    Format                                   : PGS
    Muxing mode                              : zlib
    Codec ID                                 : S_HDMV/PGS
    Codec ID/Info                            : Picture based subtitle format used on BDs/HD-DVDs
    Duration                                 : 23 min 8 s
    Bit rate                                 : 26.5 kb/s
    Count of elements                        : 684
    Stream size                              : 4.38 MiB (2%)
    Language                                 : German
    Default                                  : No
    Forced                                   : No
    
    Code:
    General
    Complete name                            : Ant-Magc.Academy.Test-Trupp.35.Ep.01.German.AC3.DL.720p.BluRay.x264-AST4u
    Format                                   : Matroska
    Format version                           : Version 4 / Version 2
    File size                                : 332 MiB
    Duration                                 : 23 min 41 s
    Overall bit rate                         : 1 959 kb/s
    Encoded date                             : UTC 2018-06-20 13:07:14
    Writing application                      : mkvmerge v8.1.0 ('Psychedelic Postcard') 32bit
    Writing library                          : libebml v1.3.1 + libmatroska v1.4.2
    
    Video
    ID                                       : 3
    Format                                   : AVC
    Format/Info                              : Advanced Video Codec
    Format profile                           : High@L4.1
    Format settings                          : CABAC / 6 Ref Frames
    Format settings, CABAC                   : Yes
    Format settings, ReFrames                : 6 frames
    Codec ID                                 : V_MPEG4/ISO/AVC
    Duration                                 : 23 min 41 s
    Bit rate                                 : 1 034 kb/s
    Width                                    : 1 280 pixels
    Height                                   : 720 pixels
    Display aspect ratio                     : 16:9
    Frame rate mode                          : Constant
    Frame rate                               : 23.976 (24000/1001) FPS
    Color space                              : YUV
    Chroma subsampling                       : 4:2:0
    Bit depth                                : 8 bits
    Scan type                                : Progressive
    Bits/(Pixel*Frame)                       : 0.047
    Stream size                              : 175 MiB (53%)
    Writing library                          : x264 core 148 r2638 7599210
    Encoding settings                        : cabac=1 / ref=6 / deblock=1:1:1 / analyse=0x3:0x113 / me=hex / subme=9 / psy=1 / psy_rd=0.40:0.00 / mixed_ref=1 / me_range=16 / chroma_me=1 / trellis=1 / 8x8dct=1 / cqm=0 / deadzone=21,11 / fast_pskip=1 / chroma_qp_offset=-2 / threads=12 / lookahead_threads=1 / sliced_threads=0 / nr=0 / decimate=1 / interlaced=0 / bluray_compat=0 / constrained_intra=0 / bframes=5 / b_pyramid=2 / b_adapt=2 / b_bias=0 / direct=1 / weightb=1 / open_gop=0 / weightp=2 / keyint=240 / keyint_min=23 / scenecut=40 / intra_refresh=0 / rc_lookahead=40 / rc=crf / mbtree=1 / crf=16.0 / qcomp=0.60 / qpmin=0 / qpmax=69 / qpstep=4 / vbv_maxrate=62500 / vbv_bufsize=78125 / crf_max=0.0 / nal_hrd=none / filler=0 / ip_ratio=1.40 / aq=1:0.60
    Default                                  : Yes
    Forced                                   : No
    
    Audio #1
    ID                                       : 4
    Format                                   : AC-3
    Format/Info                              : Audio Coding 3
    Codec ID                                 : A_AC3
    Duration                                 : 23 min 41 s
    Bit rate mode                            : Constant
    Bit rate                                 : 448 kb/s
    Channel(s)                               : 6 channels
    Channel positions                        : Front: L C R, Side: L R, LFE
    Sampling rate                            : 48.0 kHz
    Frame rate                               : 31.250 FPS (1536 SPF)
    Bit depth                                : 16 bits
    Compression mode                         : Lossy
    Stream size                              : 75.9 MiB (23%)
    Language                                 : German
    Service kind                             : Complete Main
    Default                                  : Yes
    Forced                                   : No
    
    Audio #2
    ID                                       : 5
    Format                                   : AC-3
    Format/Info                              : Audio Coding 3
    Codec ID                                 : A_AC3
    Duration                                 : 23 min 41 s
    Bit rate mode                            : Constant
    Bit rate                                 : 448 kb/s
    Channel(s)                               : 2 channels
    Channel positions                        : Front: L R
    Sampling rate                            : 48.0 kHz
    Frame rate                               : 31.250 FPS (1536 SPF)
    Bit depth                                : 16 bits
    Compression mode                         : Lossy
    Stream size                              : 75.9 MiB (23%)
    Language                                 : Japanese
    Service kind                             : Complete Main
    Default                                  : No
    Forced                                   : No
    
    Text #1
    ID                                       : 1
    Format                                   : PGS
    Muxing mode                              : zlib
    Codec ID                                 : S_HDMV/PGS
    Codec ID/Info                            : Picture based subtitle format used on BDs/HD-DVDs
    Duration                                 : 22 min 14 s
    Bit rate                                 : 1 469 b/s
    Count of elements                        : 36
    Stream size                              : 239 KiB (0%)
    Language                                 : German
    Default                                  : Yes
    Forced                                   : No
    
    Text #2
    ID                                       : 2
    Format                                   : PGS
    Muxing mode                              : zlib
    Codec ID                                 : S_HDMV/PGS
    Codec ID/Info                            : Picture based subtitle format used on BDs/HD-DVDs
    Duration                                 : 23 min 8 s
    Bit rate                                 : 26.5 kb/s
    Count of elements                        : 684
    Stream size                              : 4.38 MiB (1%)
    Language                                 : German
    Default                                  : No
    Forced                                   : No
    
    Code:
    General
    Complete name                            : Ant-Magc.Academy.Test-Trupp.35.Ep.01.German.AC3.DL.1080p.BluRay.x264-AST4u
    Format                                   : Matroska
    Format version                           : Version 4 / Version 2
    File size                                : 573 MiB
    Duration                                 : 23 min 41 s
    Overall bit rate                         : 3 378 kb/s
    Movie name                               : 00801
    Encoded date                             : UTC 2018-06-20 13:04:21
    Writing application                      : mkvmerge v8.1.0 ('Psychedelic Postcard') 32bit
    Writing library                          : libebml v1.3.1 + libmatroska v1.4.2
    
    Video
    ID                                       : 3
    Format                                   : AVC
    Format/Info                              : Advanced Video Codec
    Format profile                           : High@L4.1
    Format settings                          : CABAC / 4 Ref Frames
    Format settings, CABAC                   : Yes
    Format settings, ReFrames                : 4 frames
    Codec ID                                 : V_MPEG4/ISO/AVC
    Duration                                 : 23 min 41 s
    Bit rate                                 : 2 453 kb/s
    Width                                    : 1 920 pixels
    Height                                   : 1 080 pixels
    Display aspect ratio                     : 16:9
    Frame rate mode                          : Constant
    Frame rate                               : 23.976 (24000/1001) FPS
    Color space                              : YUV
    Chroma subsampling                       : 4:2:0
    Bit depth                                : 8 bits
    Scan type                                : Progressive
    Bits/(Pixel*Frame)                       : 0.049
    Stream size                              : 416 MiB (73%)
    Writing library                          : x264 core 148 r2638 7599210
    Encoding settings                        : cabac=1 / ref=4 / deblock=1:1:1 / analyse=0x3:0x113 / me=hex / subme=9 / psy=1 / psy_rd=0.40:0.00 / mixed_ref=1 / me_range=16 / chroma_me=1 / trellis=1 / 8x8dct=1 / cqm=0 / deadzone=21,11 / fast_pskip=1 / chroma_qp_offset=-2 / threads=24 / lookahead_threads=2 / sliced_threads=0 / nr=0 / decimate=1 / interlaced=0 / bluray_compat=0 / constrained_intra=0 / bframes=5 / b_pyramid=2 / b_adapt=2 / b_bias=0 / direct=1 / weightb=1 / open_gop=0 / weightp=2 / keyint=240 / keyint_min=23 / scenecut=40 / intra_refresh=0 / rc_lookahead=40 / rc=crf / mbtree=1 / crf=16.0 / qcomp=0.60 / qpmin=0 / qpmax=69 / qpstep=4 / vbv_maxrate=62500 / vbv_bufsize=78125 / crf_max=0.0 / nal_hrd=none / filler=0 / ip_ratio=1.40 / aq=1:0.60
    Default                                  : Yes
    Forced                                   : No
    
    Audio #1
    ID                                       : 4
    Format                                   : AC-3
    Format/Info                              : Audio Coding 3
    Codec ID                                 : A_AC3
    Duration                                 : 23 min 41 s
    Bit rate mode                            : Constant
    Bit rate                                 : 448 kb/s
    Channel(s)                               : 6 channels
    Channel positions                        : Front: L C R, Side: L R, LFE
    Sampling rate                            : 48.0 kHz
    Frame rate                               : 31.250 FPS (1536 SPF)
    Bit depth                                : 16 bits
    Compression mode                         : Lossy
    Stream size                              : 75.9 MiB (13%)
    Language                                 : German
    Service kind                             : Complete Main
    Default                                  : Yes
    Forced                                   : No
    
    Audio #2
    ID                                       : 5
    Format                                   : AC-3
    Format/Info                              : Audio Coding 3
    Codec ID                                 : A_AC3
    Duration                                 : 23 min 41 s
    Bit rate mode                            : Constant
    Bit rate                                 : 448 kb/s
    Channel(s)                               : 2 channels
    Channel positions                        : Front: L R
    Sampling rate                            : 48.0 kHz
    Frame rate                               : 31.250 FPS (1536 SPF)
    Bit depth                                : 16 bits
    Compression mode                         : Lossy
    Stream size                              : 75.9 MiB (13%)
    Language                                 : Japanese
    Service kind                             : Complete Main
    Default                                  : No
    Forced                                   : No
    
    Text #1
    ID                                       : 1
    Format                                   : PGS
    Muxing mode                              : zlib
    Codec ID                                 : S_HDMV/PGS
    Codec ID/Info                            : Picture based subtitle format used on BDs/HD-DVDs
    Duration                                 : 22 min 14 s
    Bit rate                                 : 1 469 b/s
    Count of elements                        : 36
    Stream size                              : 239 KiB (0%)
    Language                                 : German
    Default                                  : Yes
    Forced                                   : No
    
    Text #2
    ID                                       : 2
    Format                                   : PGS
    Muxing mode                              : zlib
    Codec ID                                 : S_HDMV/PGS
    Codec ID/Info                            : Picture based subtitle format used on BDs/HD-DVDs
    Duration                                 : 23 min 8 s
    Bit rate                                 : 26.5 kb/s
    Count of elements                        : 684
    Stream size                              : 4.38 MiB (1%)
    Language                                 : German
    Default                                  : No
    Forced                                   : No
    
    Code:
    General
    Complete name                            : Ant-Magc.Academy.Test-Trupp.35.Ep.01.German.DTS.5.1.DL.1080p.BluRay.x264-AST4u
    Format                                   : Matroska
    Format version                           : Version 4 / Version 2
    File size                                : 1.09 GiB
    Duration                                 : 23 min 41 s
    Overall bit rate                         : 6 559 kb/s
    Movie name                               : 00801
    Encoded date                             : UTC 2018-06-20 13:04:47
    Writing application                      : mkvmerge v8.1.0 ('Psychedelic Postcard') 32bit
    Writing library                          : libebml v1.3.1 + libmatroska v1.4.2
    
    Video
    ID                                       : 5
    Format                                   : AVC
    Format/Info                              : Advanced Video Codec
    Format profile                           : High@L4.1
    Format settings                          : CABAC / 4 Ref Frames
    Format settings, CABAC                   : Yes
    Format settings, ReFrames                : 4 frames
    Codec ID                                 : V_MPEG4/ISO/AVC
    Duration                                 : 23 min 41 s
    Bit rate                                 : 2 453 kb/s
    Width                                    : 1 920 pixels
    Height                                   : 1 080 pixels
    Display aspect ratio                     : 16:9
    Frame rate mode                          : Constant
    Frame rate                               : 23.976 (24000/1001) FPS
    Color space                              : YUV
    Chroma subsampling                       : 4:2:0
    Bit depth                                : 8 bits
    Scan type                                : Progressive
    Bits/(Pixel*Frame)                       : 0.049
    Stream size                              : 416 MiB (37%)
    Writing library                          : x264 core 148 r2638 7599210
    Encoding settings                        : cabac=1 / ref=4 / deblock=1:1:1 / analyse=0x3:0x113 / me=hex / subme=9 / psy=1 / psy_rd=0.40:0.00 / mixed_ref=1 / me_range=16 / chroma_me=1 / trellis=1 / 8x8dct=1 / cqm=0 / deadzone=21,11 / fast_pskip=1 / chroma_qp_offset=-2 / threads=24 / lookahead_threads=2 / sliced_threads=0 / nr=0 / decimate=1 / interlaced=0 / bluray_compat=0 / constrained_intra=0 / bframes=5 / b_pyramid=2 / b_adapt=2 / b_bias=0 / direct=1 / weightb=1 / open_gop=0 / weightp=2 / keyint=240 / keyint_min=23 / scenecut=40 / intra_refresh=0 / rc_lookahead=40 / rc=crf / mbtree=1 / crf=16.0 / qcomp=0.60 / qpmin=0 / qpmax=69 / qpstep=4 / vbv_maxrate=62500 / vbv_bufsize=78125 / crf_max=0.0 / nal_hrd=none / filler=0 / ip_ratio=1.40 / aq=1:0.60
    Default                                  : Yes
    Forced                                   : No
    
    Audio #1
    ID                                       : 1
    Format                                   : DTS
    Format/Info                              : Digital Theater Systems
    Format profile                           : MA / Core
    Codec ID                                 : A_DTS
    Duration                                 : 23 min 41 s
    Bit rate mode                            : Variable / Constant
    Bit rate                                 : 2 393 kb/s / 1 509 kb/s
    Channel(s)                               : 6 channels
    Channel positions                        : Front: L C R, Side: L R, LFE
    Sampling rate                            : 48.0 kHz
    Frame rate                               : 93.750 FPS (512 SPF)
    Bit depth                                : 24 bits
    Compression mode                         : Lossless / Lossy
    Stream size                              : 406 MiB (36%)
    Language                                 : German
    Default                                  : Yes
    Forced                                   : No
    
    Audio #2
    ID                                       : 2
    Format                                   : DTS
    Format/Info                              : Digital Theater Systems
    Format profile                           : MA / Core
    Codec ID                                 : A_DTS
    Duration                                 : 23 min 41 s
    Bit rate mode                            : Variable / Constant
    Bit rate                                 : 1 681 kb/s / 1 509 kb/s
    Channel(s)                               : 2 channels
    Channel positions                        : Front: L R
    Sampling rate                            : 48.0 kHz
    Frame rate                               : 93.750 FPS (512 SPF)
    Bit depth                                : 24 bits
    Compression mode                         : Lossless / Lossy
    Stream size                              : 285 MiB (26%)
    Language                                 : Japanese
    Default                                  : No
    Forced                                   : No
    
    Text #1
    ID                                       : 3
    Format                                   : PGS
    Muxing mode                              : zlib
    Codec ID                                 : S_HDMV/PGS
    Codec ID/Info                            : Picture based subtitle format used on BDs/HD-DVDs
    Duration                                 : 22 min 14 s
    Bit rate                                 : 1 469 b/s
    Count of elements                        : 36
    Stream size                              : 239 KiB (0%)
    Language                                 : German
    Default                                  : Yes
    Forced                                   : No
    
    Text #2
    ID                                       : 4
    Format                                   : PGS
    Muxing mode                              : zlib
    Codec ID                                 : S_HDMV/PGS
    Codec ID/Info                            : Picture based subtitle format used on BDs/HD-DVDs
    Duration                                 : 23 min 8 s
    Bit rate                                 : 26.5 kb/s
    Count of elements                        : 684
    Stream size                              : 4.38 MiB (0%)
    Language                                 : German
    Default                                  : No
    Forced                                   : No
    
    [​IMG]
    Onlinestatus:
    [​IMG]Xvid MP3 | [​IMG]720p AC3 | [​IMG]1080p AC3 | [​IMG]1080p DTS-HD
    Geschützter Bereich
    Registriere dich oder logge dich ein, um den Inhalt sehen zu können
     
    Zuletzt bearbeitet: 21. Sep. 2018
  2. Ta@

    Ta@ Treues Mitglied Seelenverkäufer

    Registriert seit:
    7. Juli 2016
    Beiträge:
    350
    Zustimmungen:
    13.095
    Taimadou Gakuen 35 Shiken Shoutai
    Anti Magic Academy: Test-Trupp 35
    Anti-Magic Academy: The 35th Test Platoon, AntiMagic Academy: The 35th Test Platoon

    [​IMG]
    [​IMG]
    Menschen mit magischen Kräften stehen kurz vor ihrer Auslöschung. Genau wie sich einst die Balance von Kraft und militärischer Macht von Schwertern zu Zauberei verlagerte, so verschiebt sie sich nun erneut zu Schusswaffen. Takeru Kusanagi ist ein Schüler der AntiMagic Academy, eine Trainingseinrichtung für Inquisitoren, die gegen die schwindende Gefahr durch Magienutzer vorgehen. Allerdings ist Takeru nicht dazu in der Lage Schusswaffen zu verwenden und kann aussschließlich mit einem Schwert kämpfen. Infolgedessen wird er in das 35th Test Platoon verwiesen, welches aus schwachen Schülern zusammengewürfelt ist. Eines Tages tritt Ouka Ootori, eine elitäre Pistolenmeisterin, die bereits die Qualifikationen zur Hexenjagd hat, dem 35th Test Platoon bei.


    Folgen: 12/12
    Größe pro Folge: ~230 MB/~400 MB/~720 MB/~1250 MB
    Folgendauer: ~24 Min
    Releaser: AST4u
    Art: Lizenzrelease
    Sprache: Japanisch, Deutsch
    Untertitel: Deutsch
    Auflösung: 720x408/1280x720/1920x1080
    Format: MKV
    Quelle: BDRip
    Videocodec: xvid/x264
    Farbtiefe: 8Bit
    Audiocodec: MP3/AC3/DTS
    Hoster: Share-Online

    [​IMG]
    Code:
    General Complete name : Anti-Magic.Academy.Test-Trupp.35.Ep.01.German.DL.MP3.BluRay.Xvid.AST4u.avi Format : Matroska Format version : Version 4 / Version 2 File size : 181 MiB Duration : 23 min 41 s Overall bit rate : 1 065 kb/s Movie name : S01E01 Sassenach Encoded date : UTC 2018-06-20 13:03:08 Writing application : mkvmerge v8.1.0 ('Psychedelic Postcard') 32bit Writing library : libebml v1.3.1 + libmatroska v1.4.2 FileExtension_Invalid : mkv mk3d mka mks Video ID : 3 Format : MPEG-4 Visual Format profile : Advanced Simple@L5 Format settings : BVOP2 Format settings, BVOP : 2 Format settings, QPel : No Format settings, GMC : No warppoints Format settings, Matrix : Default (MPEG) Codec ID : V_MS/VFW/FOURCC / XVID Codec ID/Hint : XviD Duration : 23 min 41 s Bit rate : 652 kb/s Width : 720 pixels Height : 408 pixels Display aspect ratio : 16:9 Frame rate mode : Constant Frame rate : 23.976 (24000/1001) FPS Color space : YUV Chroma subsampling : 4:2:0 Bit depth : 8 bits Scan type : Progressive Compression mode : Lossy Bits/(Pixel*Frame) : 0.093 Stream size : 110 MiB (61%) Writing library : XviD 67 Default : Yes Forced : No Audio #1 ID : 4 Format : MPEG Audio Format version : Version 1 Format profile : Layer 3 Format settings : Joint stereo Codec ID : A_MPEG/L3 Codec ID/Hint : MP3 Duration : 23 min 41 s Bit rate mode : Constant Bit rate : 192 kb/s Channel(s) : 2 channels Sampling rate : 48.0 kHz Frame rate : 41.667 FPS (1152 SPF) Compression mode : Lossy Stream size : 32.5 MiB (18%) Writing library : LAME3.99r Encoding settings : -m j -V 4 -q 2 -lowpass 18.6 -b 192 Language : German Default : Yes Forced : No Audio #2 ID : 5 Format : MPEG Audio Format version : Version 1 Format profile : Layer 3 Format settings : Joint stereo Codec ID : A_MPEG/L3 Codec ID/Hint : MP3 Duration : 23 min 41 s Bit rate mode : Constant Bit rate : 192 kb/s Channel(s) : 2 channels Sampling rate : 48.0 kHz Frame rate : 41.667 FPS (1152 SPF) Compression mode : Lossy Stream size : 32.5 MiB (18%) Writing library : LAME3.99r Encoding settings : -m j -V 4 -q 2 -lowpass 18.6 -b 192 Language : Japanese Default : No Forced : No Text #1 ID : 1 Format : PGS Muxing mode : zlib Codec ID : S_HDMV/PGS Codec ID/Info : Picture based subtitle format used on BDs/HD-DVDs Duration : 22 min 14 s Bit rate : 1 469 b/s Count of elements : 36 Stream size : 239 KiB (0%) Language : German Default : Yes Forced : No Text #2 ID : 2 Format : PGS Muxing mode : zlib Codec ID : S_HDMV/PGS Codec ID/Info : Picture based subtitle format used on BDs/HD-DVDs Duration : 23 min 8 s Bit rate : 26.5 kb/s Count of elements : 684 Stream size : 4.38 MiB (2%) Language : German Default : No Forced : No ​
    Code:
    General Complete name : Anti-Magic.Academy.Test-Trupp.35.Ep.01.German.AC3.DL.720p.BluRay.x264-AST4u.mkv Format : Matroska Format version : Version 4 / Version 2 File size : 332 MiB Duration : 23 min 41 s Overall bit rate : 1 959 kb/s Encoded date : UTC 2018-06-20 13:07:14 Writing application : mkvmerge v8.1.0 ('Psychedelic Postcard') 32bit Writing library : libebml v1.3.1 + libmatroska v1.4.2 Video ID : 3 Format : AVC Format/Info : Advanced Video Codec Format profile : High@L4.1 Format settings : CABAC / 6 Ref Frames Format settings, CABAC : Yes Format settings, RefFrames : 6 frames Codec ID : V_MPEG4/ISO/AVC Duration : 23 min 41 s Bit rate : 1 034 kb/s Width : 1 280 pixels Height : 720 pixels Display aspect ratio : 16:9 Frame rate mode : Constant Frame rate : 23.976 (24000/1001) FPS Color space : YUV Chroma subsampling : 4:2:0 Bit depth : 8 bits Scan type : Progressive Bits/(Pixel*Frame) : 0.047 Stream size : 175 MiB (53%) Writing library : x264 core 148 r2638 7599210 Encoding settings : cabac=1 / ref=6 / deblock=1:1:1 / analyse=0x3:0x113 / me=hex / subme=9 / psy=1 / psy_rd=0.40:0.00 / mixed_ref=1 / me_range=16 / chroma_me=1 / trellis=1 / 8x8dct=1 / cqm=0 / deadzone=21,11 / fast_pskip=1 / chroma_qp_offset=-2 / threads=12 / lookahead_threads=1 / sliced_threads=0 / nr=0 / decimate=1 / interlaced=0 / bluray_compat=0 / constrained_intra=0 / bframes=5 / b_pyramid=2 / b_adapt=2 / b_bias=0 / direct=1 / weightb=1 / open_gop=0 / weightp=2 / keyint=240 / keyint_min=23 / scenecut=40 / intra_refresh=0 / rc_lookahead=40 / rc=crf / mbtree=1 / crf=16.0 / qcomp=0.60 / qpmin=0 / qpmax=69 / qpstep=4 / vbv_maxrate=62500 / vbv_bufsize=78125 / crf_max=0.0 / nal_hrd=none / filler=0 / ip_ratio=1.40 / aq=1:0.60 Default : Yes Forced : No Audio #1 ID : 4 Format : AC-3 Format/Info : Audio Coding 3 Codec ID : A_AC3 Duration : 23 min 41 s Bit rate mode : Constant Bit rate : 448 kb/s Channel(s) : 6 channels Channel positions : Front: L C R, Side: L R, LFE Sampling rate : 48.0 kHz Frame rate : 31.250 FPS (1536 SPF) Bit depth : 16 bits Compression mode : Lossy Stream size : 75.9 MiB (23%) Language : German Service kind : Complete Main Default : Yes Forced : No Audio #2 ID : 5 Format : AC-3 Format/Info : Audio Coding 3 Codec ID : A_AC3 Duration : 23 min 41 s Bit rate mode : Constant Bit rate : 448 kb/s Channel(s) : 2 channels Channel positions : Front: L R Sampling rate : 48.0 kHz Frame rate : 31.250 FPS (1536 SPF) Bit depth : 16 bits Compression mode : Lossy Stream size : 75.9 MiB (23%) Language : Japanese Service kind : Complete Main Default : No Forced : No Text #1 ID : 1 Format : PGS Muxing mode : zlib Codec ID : S_HDMV/PGS Codec ID/Info : Picture based subtitle format used on BDs/HD-DVDs Duration : 22 min 14 s Bit rate : 1 469 b/s Count of elements : 36 Stream size : 239 KiB (0%) Language : German Default : Yes Forced : No Text #2 ID : 2 Format : PGS Muxing mode : zlib Codec ID : S_HDMV/PGS Codec ID/Info : Picture based subtitle format used on BDs/HD-DVDs Duration : 23 min 8 s Bit rate : 26.5 kb/s Count of elements : 684 Stream size : 4.38 MiB (1%) Language : German Default : No Forced : No ​
    Code:
    General Complete name : Anti-Magic.Academy.Test-Trupp.35.Ep.01.German.AC3.DL.1080p.BluRay.x264-AST4u.mkv Format : Matroska Format version : Version 4 / Version 2 File size : 573 MiB Duration : 23 min 41 s Overall bit rate : 3 378 kb/s Movie name : 00801 Encoded date : UTC 2018-06-20 13:04:21 Writing application : mkvmerge v8.1.0 ('Psychedelic Postcard') 32bit Writing library : libebml v1.3.1 + libmatroska v1.4.2 Video ID : 3 Format : AVC Format/Info : Advanced Video Codec Format profile : High@L4.1 Format settings : CABAC / 4 Ref Frames Format settings, CABAC : Yes Format settings, RefFrames : 4 frames Codec ID : V_MPEG4/ISO/AVC Duration : 23 min 41 s Bit rate : 2 453 kb/s Width : 1 920 pixels Height : 1 080 pixels Display aspect ratio : 16:9 Frame rate mode : Constant Frame rate : 23.976 (24000/1001) FPS Color space : YUV Chroma subsampling : 4:2:0 Bit depth : 8 bits Scan type : Progressive Bits/(Pixel*Frame) : 0.049 Stream size : 416 MiB (73%) Writing library : x264 core 148 r2638 7599210 Encoding settings : cabac=1 / ref=4 / deblock=1:1:1 / analyse=0x3:0x113 / me=hex / subme=9 / psy=1 / psy_rd=0.40:0.00 / mixed_ref=1 / me_range=16 / chroma_me=1 / trellis=1 / 8x8dct=1 / cqm=0 / deadzone=21,11 / fast_pskip=1 / chroma_qp_offset=-2 / threads=24 / lookahead_threads=2 / sliced_threads=0 / nr=0 / decimate=1 / interlaced=0 / bluray_compat=0 / constrained_intra=0 / bframes=5 / b_pyramid=2 / b_adapt=2 / b_bias=0 / direct=1 / weightb=1 / open_gop=0 / weightp=2 / keyint=240 / keyint_min=23 / scenecut=40 / intra_refresh=0 / rc_lookahead=40 / rc=crf / mbtree=1 / crf=16.0 / qcomp=0.60 / qpmin=0 / qpmax=69 / qpstep=4 / vbv_maxrate=62500 / vbv_bufsize=78125 / crf_max=0.0 / nal_hrd=none / filler=0 / ip_ratio=1.40 / aq=1:0.60 Default : Yes Forced : No Audio #1 ID : 4 Format : AC-3 Format/Info : Audio Coding 3 Codec ID : A_AC3 Duration : 23 min 41 s Bit rate mode : Constant Bit rate : 448 kb/s Channel(s) : 6 channels Channel positions : Front: L C R, Side: L R, LFE Sampling rate : 48.0 kHz Frame rate : 31.250 FPS (1536 SPF) Bit depth : 16 bits Compression mode : Lossy Stream size : 75.9 MiB (13%) Language : German Service kind : Complete Main Default : Yes Forced : No Audio #2 ID : 5 Format : AC-3 Format/Info : Audio Coding 3 Codec ID : A_AC3 Duration : 23 min 41 s Bit rate mode : Constant Bit rate : 448 kb/s Channel(s) : 2 channels Channel positions : Front: L R Sampling rate : 48.0 kHz Frame rate : 31.250 FPS (1536 SPF) Bit depth : 16 bits Compression mode : Lossy Stream size : 75.9 MiB (13%) Language : Japanese Service kind : Complete Main Default : No Forced : No Text #1 ID : 1 Format : PGS Muxing mode : zlib Codec ID : S_HDMV/PGS Codec ID/Info : Picture based subtitle format used on BDs/HD-DVDs Duration : 22 min 14 s Bit rate : 1 469 b/s Count of elements : 36 Stream size : 239 KiB (0%) Language : German Default : Yes Forced : No Text #2 ID : 2 Format : PGS Muxing mode : zlib Codec ID : S_HDMV/PGS Codec ID/Info : Picture based subtitle format used on BDs/HD-DVDs Duration : 23 min 8 s Bit rate : 26.5 kb/s Count of elements : 684 Stream size : 4.38 MiB (1%) Language : German Default : No Forced : No ​
    Code:
    General Complete name : Anti-Magic.Academy.Test-Trupp.35.Ep.01.German.DTS.5.1.DL.1080p.BluRay.x264-AST4u.mkv Format : Matroska Format version : Version 4 / Version 2 File size : 1.09 GiB Duration : 23 min 41 s Overall bit rate : 6 559 kb/s Movie name : 00801 Encoded date : UTC 2018-06-20 13:04:47 Writing application : mkvmerge v8.1.0 ('Psychedelic Postcard') 32bit Writing library : libebml v1.3.1 + libmatroska v1.4.2 Video ID : 5 Format : AVC Format/Info : Advanced Video Codec Format profile : High@L4.1 Format settings : CABAC / 4 Ref Frames Format settings, CABAC : Yes Format settings, RefFrames : 4 frames Codec ID : V_MPEG4/ISO/AVC Duration : 23 min 41 s Bit rate : 2 453 kb/s Width : 1 920 pixels Height : 1 080 pixels Display aspect ratio : 16:9 Frame rate mode : Constant Frame rate : 23.976 (24000/1001) FPS Color space : YUV Chroma subsampling : 4:2:0 Bit depth : 8 bits Scan type : Progressive Bits/(Pixel*Frame) : 0.049 Stream size : 416 MiB (37%) Writing library : x264 core 148 r2638 7599210 Encoding settings : cabac=1 / ref=4 / deblock=1:1:1 / analyse=0x3:0x113 / me=hex / subme=9 / psy=1 / psy_rd=0.40:0.00 / mixed_ref=1 / me_range=16 / chroma_me=1 / trellis=1 / 8x8dct=1 / cqm=0 / deadzone=21,11 / fast_pskip=1 / chroma_qp_offset=-2 / threads=24 / lookahead_threads=2 / sliced_threads=0 / nr=0 / decimate=1 / interlaced=0 / bluray_compat=0 / constrained_intra=0 / bframes=5 / b_pyramid=2 / b_adapt=2 / b_bias=0 / direct=1 / weightb=1 / open_gop=0 / weightp=2 / keyint=240 / keyint_min=23 / scenecut=40 / intra_refresh=0 / rc_lookahead=40 / rc=crf / mbtree=1 / crf=16.0 / qcomp=0.60 / qpmin=0 / qpmax=69 / qpstep=4 / vbv_maxrate=62500 / vbv_bufsize=78125 / crf_max=0.0 / nal_hrd=none / filler=0 / ip_ratio=1.40 / aq=1:0.60 Default : Yes Forced : No Audio #1 ID : 1 Format : DTS Format/Info : Digital Theater Systems Format profile : MA / Core Codec ID : A_DTS Duration : 23 min 41 s Bit rate mode : Variable / Constant Bit rate : 2 393 kb/s / 1 509 kb/s Channel(s) : 6 channels Channel positions : Front: L C R, Side: L R, LFE Sampling rate : 48.0 kHz Frame rate : 93.750 FPS (512 SPF) Bit depth : 24 bits Compression mode : Lossless / Lossy Stream size : 406 MiB (36%) Language : German Default : Yes Forced : No Audio #2 ID : 2 Format : DTS Format/Info : Digital Theater Systems Format profile : MA / Core Codec ID : A_DTS Duration : 23 min 41 s Bit rate mode : Variable / Constant Bit rate : 1 681 kb/s / 1 509 kb/s Channel(s) : 2 channels Channel positions : Front: L R Sampling rate : 48.0 kHz Frame rate : 93.750 FPS (512 SPF) Bit depth : 24 bits Compression mode : Lossless / Lossy Stream size : 285 MiB (26%) Language : Japanese Default : No Forced : No Text #1 ID : 3 Format : PGS Muxing mode : zlib Codec ID : S_HDMV/PGS Codec ID/Info : Picture based subtitle format used on BDs/HD-DVDs Duration : 22 min 14 s Bit rate : 1 469 b/s Count of elements : 36 Stream size : 239 KiB (0%) Language : German Default : Yes Forced : No Text #2 ID : 4 Format : PGS Muxing mode : zlib Codec ID : S_HDMV/PGS Codec ID/Info : Picture based subtitle format used on BDs/HD-DVDs Duration : 23 min 8 s Bit rate : 26.5 kb/s Count of elements : 684 Stream size : 4.38 MiB (0%) Language : German Default : No Forced : No ​
    SD:[​IMG]720p:[​IMG]1080p:[​IMG]1080p DTS:[​IMG]

    Geschützter Bereich
    Registriere dich oder logge dich ein, um den Inhalt sehen zu können
     
    Zuletzt bearbeitet: 13. Jan. 2019
  3. Uploading123

    Uploading123 High Quality Anime Seelenverkäufer

    Registriert seit:
    7. März 2013
    Beiträge:
    596
    Zustimmungen:
    14.832

    Anti-Magic Academy Test-Trupp 35

    [​IMG]

    .:Beschreibung:.
    Die Schüler der Anti-Magic Academy werden dazu ausgebildet, gegen Hexen und andere „Dämonenbrut“ zu kämpfen. Dabei werden sie stets in kleine Trupps aufgeteilt, um das bestmögliche Trainingsergebnis zu erzielen. Im Test-Trupp 35 jedoch, dem "Kleine-Fische-Zug", befinden sich nur Looser. So auch der junge Takeru Kusanagi, der lediglich mit dem Schwert kämpfen kann, und Ouka Ootori, eigentlich eine Meisterin an den Pistolen, aber bisweilen blind vor Zorn und auch nicht sonderlich begeistert von ihrer Strafversetzung zum „Kleine-Fische-Zug“…

    .:Info:.
    Größe:
    20368 MB
    Laufzeit: 24 Min.
    Format: .mkv
    Video Stream: BD
    Video Codec: MPEG-4 H.264 / AVC
    Audio Stream: DTS-HD MA 5.1
    Sprache/n: GER, JPN
    Untertitel: GER
    Releaser: AST4u
    Episodenanzahl: 12/12
    Hoster: SO, RG

    .:NFO:.
    Code:
    Vollständiger Name                       : F:\[ENTPACKEN]\ast4u\Anti-Magic.Academy.Test-Trupp.35.Ep.01.German.DTS.5.1.DL.1080p.BluRay.x264-AST4u\Anti-Magic.Academy.Test-Trupp.35.Ep.01.German.DTS.5.1.DL.1080p.BluRay.x264-AST4u.mkv
    Format                                   : Matroska
    Format-Version                           : Version 4 / Version 2
    Dateigröße                               : 1,09 GiB
    Dauer                                    : 23 min 41s
    Gesamte Bitrate                          : 6 559 kb/s
    Filmname                                 : 00801
    Kodierungs-Datum                         : UTC 2018-06-20 13:04:47
    Kodierendes Programm                     : mkvmerge v8.1.0 ('Psychedelic Postcard') 32bit
    verwendete Encoder-Bibliothek            : libebml v1.3.1 + libmatroska v1.4.2
    
    Video
    ID                                       : 5
    Format                                   : AVC
    Format/Info                              : Advanced Video Codec
    Format-Profil                            : High@L4.1
    Format-Einstellungen                     : CABAC / 4 Ref Frames
    Format-Einstellungen für CABAC           : Ja
    Format-Einstellungen für RefFrames       : 4 frames
    Codec-ID                                 : V_MPEG4/ISO/AVC
    Dauer                                    : 23 min 41s
    Bitrate                                  : 2 453 kb/s
    Breite                                   : 1 920 Pixel
    Höhe                                     : 1 080 Pixel
    Bildseitenverhältnis                     : 16:9
    Modus der Bildwiederholungsrate          : konstant
    Bildwiederholungsrate                    : 23,976 (24000/1001) FPS
    ColorSpace                               : YUV
    ChromaSubsampling/String                 : 4:2:0
    BitDepth/String                          : 8 bits
    Scantyp                                  : progressiv
    Bits/(Pixel*Frame)                       : 0.049
    Stream-Größe                             : 416 MiB (37%)
    verwendete Encoder-Bibliothek            : x264 core 148 r2638 7599210
    Kodierungseinstellungen                  : cabac=1 / ref=4 / deblock=1:1:1 / analyse=0x3:0x113 / me=hex / subme=9 / psy=1 / psy_rd=0.40:0.00 / mixed_ref=1 / me_range=16 / chroma_me=1 / trellis=1 / 8x8dct=1 / cqm=0 / deadzone=21,11 / fast_pskip=1 / chroma_qp_offset=-2 / threads=24 / lookahead_threads=2 / sliced_threads=0 / nr=0 / decimate=1 / interlaced=0 / bluray_compat=0 / constrained_intra=0 / bframes=5 / b_pyramid=2 / b_adapt=2 / b_bias=0 / direct=1 / weightb=1 / open_gop=0 / weightp=2 / keyint=240 / keyint_min=23 / scenecut=40 / intra_refresh=0 / rc_lookahead=40 / rc=crf / mbtree=1 / crf=16.0 / qcomp=0.60 / qpmin=0 / qpmax=69 / qpstep=4 / vbv_maxrate=62500 / vbv_bufsize=78125 / crf_max=0.0 / nal_hrd=none / filler=0 / ip_ratio=1.40 / aq=1:0.60
    Default                                  : Ja
    Forced                                   : Nein
    
    Audio #1
    ID                                       : 1
    Format                                   : DTS
    Format/Info                              : Digital Theater Systems
    Format-Profil                            : MA / Core
    Codec-ID                                 : A_DTS
    Dauer                                    : 23 min 41s
    Bitraten-Modus                           : variabel / konstant
    Bitrate                                  : 2 393 kb/s / 1 509 kb/s
    Kanäle                                   : 6 Kanäle
    Kanal-Positionen                         : Front: L C R, Side: L R, LFE
    Samplingrate                             : 48,0 kHz
    Bildwiederholungsrate                    : 93,750 FPS (512 SPF)
    BitDepth/String                          : 24 bits
    Compression_Mode/String                  :  / Lossy
    Stream-Größe                             : 406 MiB (36%)
    Sprache                                  : Deutsch
    Default                                  : Ja
    Forced                                   : Nein
    
    Audio #2
    ID                                       : 2
    Format                                   : DTS
    Format/Info                              : Digital Theater Systems
    Format-Profil                            : MA / Core
    Codec-ID                                 : A_DTS
    Dauer                                    : 23 min 41s
    Bitraten-Modus                           : variabel / konstant
    Bitrate                                  : 1 681 kb/s / 1 509 kb/s
    Kanäle                                   : 2 Kanäle
    Kanal-Positionen                         : Front: L R
    Samplingrate                             : 48,0 kHz
    Bildwiederholungsrate                    : 93,750 FPS (512 SPF)
    BitDepth/String                          : 24 bits
    Compression_Mode/String                  :  / Lossy
    Stream-Größe                             : 285 MiB (26%)
    Sprache                                  : Japanisch
    Default                                  : Nein
    Forced                                   : Nein
    
    Text #1
    ID                                       : 3
    Format                                   : PGS
    Muxing-Modus                             : zlib
    Codec-ID                                 : S_HDMV/PGS
    Codec-ID/Info                            : Picture based subtitle format used on BDs/HD-DVDs
    Dauer                                    : 22 min 14s
    Bitrate                                  : 1 469 b/s
    ElementCount                             : 36
    Stream-Größe                             : 239 KiB (0%)
    Sprache                                  : Deutsch
    Default                                  : Ja
    Forced                                   : Nein
    
    Text #2
    ID                                       : 4
    Format                                   : PGS
    Muxing-Modus                             : zlib
    Codec-ID                                 : S_HDMV/PGS
    Codec-ID/Info                            : Picture based subtitle format used on BDs/HD-DVDs
    Dauer                                    : 23 min 8s
    Bitrate                                  : 26,5 kb/s
    ElementCount                             : 684
    Stream-Größe                             : 4,38 MiB (0%)
    Sprache                                  : Deutsch
    Default                                  : Nein
    Forced                                   : Nein
    
    


    Mirrors kompatibel

    .:Share-online.biz:. [​IMG]
    Geschützter Bereich
    Registriere dich oder logge dich ein, um den Inhalt sehen zu können
    .:Rapidgator.net:. [​IMG]
    Geschützter Bereich
    Registriere dich oder logge dich ein, um den Inhalt sehen zu können
     
    charlymileon, Piox, zimbo201174 und 34 anderen gefällt das.
  4. Ta@

    Ta@ Treues Mitglied Seelenverkäufer

    Registriert seit:
    7. Juli 2016
    Beiträge:
    350
    Zustimmungen:
    13.095
    ~Folgen 9-12 online~
    ~Staffel/Serie abgeschlossen~
     
    chopper23 gefällt das.
1!-- -->